Важное объявление!
У Нас Все раздачи мультитрекерные, при нуле пиров в релизах, можете смело вставать на закачку!
 
Автор Сообщение

HUNTER

Стаж:
4 года 4 месяца
Сообщений:
56829

Репутация: 101

[+] [-]
Вне форума [Профиль] [ЛС]

Южный календарь-

Год выпуска: 2012
Страна: Россия
Жанр: Драма
Продолжительность: 01:30:33
Перевод: Оригинал-Режиссер: Денис Карро
Сценарий: Антон Уткин
Продюсер: Александр Потемкин
Оператор: Максим Шинкоренко
Композитор: Святослав Курашов-В ролях: Ангелина Миримская (Люда), Виктория Исакова , Алексей Девотченко , Ольга Тумайкина , Михаил Кабанов , Николай Козак (Ушаков), Дмитрий Ратомский , Ольга Стрелецкая , Андрей Таратухин , Светлана Дикаанидас
-Описание: Фильм «Южный календарь» состоит из трех новелл, действия которых происходят на российском юге, на берегу Черного моря. Каждая новелла — это история человека, не вписавшегося в современную российскую действительность.Первая история называется «Ничего» и рассказывает о директоре археологического музея. Музей нуждается в капитальном ремонте. Герой новеллы безуспешно пытается найти деньги на ремонт, но его музей никому не нужен — ни государству, ни представителям элиты общества. Зато уникальными экспонатами музея интересуются частные коллекционеры. Когда музей рушится от ветхости, директор начинает продавать принадлежащие государству экспонаты и на вырученные деньги отправляет лечиться больную дочку сотрудницы музея. Также в новелле говорится о разобщенности людей в современном мире, невозможности общаться, об одиночестве.Вторая новелла — «Чайка» — рассказывает о сельской девушке, работающей посудомойкой в курортном пансионате. Она очарована блеском гламура, миром кино и шоу-бизнеса. Она потеряла реальные ориентиры в жизни, запуталась и не может найти выход. Третья история — «Инжир» — рассказывает о морском офицере, уволенном из Черноморского флота по программе сокращения вооруженных сил. Он, так же как и остальные герои, потерял смысл своего существования и уезжает на поезде в поисках нового. Но окружающий мир говорит ему, что смысла нет, кругом ужас и пустота. Но все же, хоть у героев этих историй и нет выхода, финал третьей новеллы, который является одновременно и финалом фильма, дает надежду. Больная девочка, дочка сотрудницы музея, едет в Москву на операцию в одном поезде с офицером.-Качество: SATRip
Формат: AVI
Видео кодек: XviD
Аудио кодеk: MP3
Видео: 640x352 (1.82:1), 25 fps, XviD MPEG-4 ~946 kbps avg, 0.17 bit/pixel
Аудио: Аудио #1: 48 kHz, MPEG Layer 3, 2 ch, ~128.00 kbps avg

-

МедиаИнфо

Код: copyText_writeLink('this.parentNode.parentNode.nextSibling.nextSibling'); General
Complete name : Yuzhnyi.kalendar.avi
Format : AVI
Format/Info : Audio Video Interleave
File size : 701 MiB
Duration : 1h 30mn
Overall bit rate : 1 082 Kbps
Writing application : VirtualDubMod 1.5.4.1 (build 2178/release)
Writing library : VirtualDubMod build 2178/release
Video
ID : 0
Format : MPEG-4 Visual
Format profile : Advanced Simple@L5
Format settings, BVOP : Yes
Format settings, QPel : No
Format settings, GMC : No warppoints
Format settings, Matrix : Custom
Codec ID : XVID
Codec ID/Hint : XviD
Duration : 1h 30mn
Bit rate : 946 Kbps
Width : 640 pixels
Height : 352 pixels
Display aspect ratio : 16:9
Frame rate : 25.000 fps
Color space : YUV
Chroma subsampling : 4:2:0
Bit depth : 8 bits
Scan type : Progressive
Bits/(Pixel*Frame) : 0.168
Stream size : 613 MiB (87%)
Writing library : XviD 64
Audio
ID : 1
Format : MPEG Audio
Format version : Version 1
Format profile : Layer 3
Mode : Joint stereo
Mode extension : MS Stereo
Codec ID : 55
Codec ID/Hint : MP3
Duration : 1h 30mn
Bit rate mode : Constant
Bit rate : 128 Kbps
Channel(s) : 2 channels
Sampling rate : 48.0 KHz
Stream size : 82.9 MiB (12%)
Alignment : Aligned on interleaves
Interleave, duration : 80 ms (2.00 video frames)
Interleave, preload duration : 504 ms
Writing library : LAME3.97
Encoding settings : -m j -V 4 -q 2 -lowpass 17 -b 128
-
-- -

_________________
Показать сообщения:    

Текущее время: Сегодня 12:36

Часовой пояс: GMT



Вы не можете начинать темы
Вы не можете отвечать на сообщения
Вы не можете редактировать свои сообщения
Вы не можете удалять свои сообщения
Вы не можете голосовать в опросах
Вы не можете прикреплять файлы к сообщениям
Вы не можете скачивать файлы