Важное объявление!
У Нас Все раздачи мультитрекерные, при нуле пиров в релизах, можете смело вставать на закачку!
 
Автор Сообщение

HUNTER

Стаж:
4 года 4 месяца
Сообщений:
56839

Репутация: 101

[+] [-]
Вне форума [Профиль] [ЛС]

Эффективное семантическое ядро сайта. (Super Vip)--

  • Год выпуска: 2015
  • Страна: Россия
  • Тематика: Создание и продвижение сайта
  • Тип материала: Обучающее видео
  • Продолжительность: ~6 часов
  • Автор: Иван Севостьянов
  • Язык: Русский-Описание:
    Иван Севостьянов — генеральный директор компании «ВебПроекты» — поделится с нами секретами и особенностями формирования Семантического Ядра.
    В рамках занятия, будут рассмотрены:
    • Основные методы сбора семантики;
    • Особенности распределения запросов по проекту;
    • Рабочий инструментарий специалистов и многое другое!

    Содержание


    День 1
    Раздел 1. Что такое семантическое ядро и его роль для SEO и бизнеса
    • Определение терминов.
    • Почему семантика это первый шаг в SEO?
    • Как использовать семантику, если сайта еще нет?
    • Какую отдачу для сайта и бизнеса дает грамотно подобранное семантическое ядро?
    • Сколько запросов должно быть в семантике?
    • Какую минимальную частоту запроса взять?
    Раздел 2. Инструменты для создания семантического ядра
    • Статистика запросов Яндекса, как основа для сбора семантики.
    • Сервис запросов Rambler и его отличия.
    • Автоматизированные сервисы для создания семантики: достоинства и недостатки.
    • Грамотная работа с Excel при работе с отобранными запросами.
    День 2
    Раздел 1. Принципы группировки запросов
    • Виды запросов: коммерческие, некоммерческие, информационные.
    • Классификация запросов.
    • Группировка по принципу “1 страница = 1 проблема”.
    • Примеры правильной и неправильной группировки.
    • Какие запросы нужно ставить на главную страницу.
    • Несовместимые на 1 странице запросы.
    • Какие запросы нужно удалять из семантического ядра.
    Раздел 2. Как строить структуру сайта, исходя из полученного ядра запросов
    • Что такое структура сайта?
    • Принципы построения структуры сайта.
    • Средства визуализации структуры, использование интеллект-карт.
    • Типовые ошибки при построении структуры сайта.
    День 3
    Раздел 1. Как можно собирать запросы нестандартными методами
    • Использование счетчиков статистики для сбора семантики:
    • Яндекс.Метрика
    • Google Analytics
    • Использование сервисов подсказок.
    • “Метод вопросов” от Клиента и сбор семантики.
    Раздел 2. Специфика работы с крупными ядрами, интернет-магазинами, сайтами на разных языках и т.п.
    • Как работать с ядрами от 10000+ запросов
    • Специфика кластеризации для интернет-магазинов
    • Нестандартные приемы автоматического заполнения тысяч карточек товаров без потери качества контента.
    • Кластеризация через фильтры: примеры реализации
    • Что делать, если вы не знаете, где брать идеи. Универсальный алгоритм для крупных проектов.
    • Нестандартные решения по кластеризации и уникализации контента.
    • Инструменты для чистки больших ядер запросов
    • Как определить, стоит ли брать данный запрос в семантику? Определяем «накрученность» запроса
    • Почему разработка сайта должна начинаться с семантики. Что скрывает 90% разработчиков сайтов.
    --
  • Качество: PCRec
  • Формат: Мp4 + доп.материалы
  • Видео кодек: AVC
  • Аудио кодек: AAC-LC
  • Видео: avc1, 1280x720, ~809 Kbps, 25 fps
  • Аудио: AAC-LC, 44.1 KHz, 2 ch stereo, 192 Kbps

    MediaInfo


    Общее
    Полное имя : G:\R.G. Мастер-Класс\Эффективное семантическое ядро сайта. (Super Vip) (2015)\day1_27.08.15\day1_part1.mp4
    Формат : MPEG-4
    Профиль формата : Base Media / Version 2
    Идентификатор кодека : mp42
    Размер файла : 483 Мбайт
    Продолжительность : 1 ч. 7 м.
    Режим общего битрейта : Переменный
    Общий поток : 1004 Кбит/сек
    Дата кодирования : UTC 2015-08-28 12:29:07
    Дата пометки : UTC 2015-08-28 12:29:07
    gsst : 0
    gstd : 4035023
    gssd : B4A7DD147HM1440848139005122
    gshh : r7---sn-5hn7su7s.googlevideo.com
    Видео
    Идентификатор : 1
    Формат : AVC
    Формат/Информация : Advanced Video Codec
    Профиль формата : High@L3.1
    Параметр CABAC формата : Да
    Параметр ReFrames формата : 1 кадр
    Параметр GOP формата : M=1, N=60
    Идентификатор кодека : avc1
    Идентификатор кодека/Информация : Advanced Video Coding
    Продолжительность : 1 ч. 7 м.
    Битрейт : 809 Кбит/сек
    Максимальный битрейт : 8236 Кбит/сек
    Ширина : 1280 пикселей
    Высота : 720 пикселей
    Соотношение сторон : 16:9
    Режим частоты кадров : Постоянный
    Частота кадров : 25,000 кадров/сек
    Цветовое пространство : YUV
    Субдискретизация насыщенности : 4:2:0
    Битовая глубина : 8 бит
    Тип развёртки : Прогрессивная
    Бит/(Пиксели*Кадры) : 0.035
    Размер потока : 389 Мбайт (81%)
    Дата пометки : UTC 2015-08-28 12:29:52
    Аудио
    Идентификатор : 2
    Формат : AAC
    Формат/Информация : Advanced Audio Codec
    Профиль формата : LC
    Идентификатор кодека : 40
    Продолжительность : 1 ч. 7 м.
    Вид битрейта : Переменный
    Битрейт : 192 Кбит/сек
    Максимальный битрейт : 201 Кбит/сек
    Каналы : 2 канала
    Расположение каналов : Front: L R
    Частота : 44,1 КГц
    Метод сжатия : С потерями
    Размер потока : 92,4 Мбайт (19%)
    Заголовок : IsoMedia File Produced by Google, 5-11-2011
    Дата кодирования : UTC 2015-08-28 12:29:42
    Дата пометки : UTC 2015-08-28 12:29:52
--

Скриншоты



_________________
Показать сообщения:    

Текущее время: Сегодня 22:51

Часовой пояс: GMT



Вы не можете начинать темы
Вы не можете отвечать на сообщения
Вы не можете редактировать свои сообщения
Вы не можете удалять свои сообщения
Вы не можете голосовать в опросах
Вы не можете прикреплять файлы к сообщениям
Вы не можете скачивать файлы