Важное объявление!
У Нас Все раздачи мультитрекерные, при нуле пиров в релизах, можете смело вставать на закачку!
 
Автор Сообщение

HUNTER

Стаж:
4 года 4 месяца
Сообщений:
56829

Репутация: 101

[+] [-]
Вне форума [Профиль] [ЛС]

Эффект бабочки / Butterfly Effect
Режиссёрская версия / Director's Cut
-
Страна: США, Канада
Студия: BenderSpink, FilmEngine, Katalyst Films, Province of British Columbia Production Services Tax Credit
Жанр: Фантастика, триллер, драма, детектив
Год выпуска: 2004
Продолжительность: 01:59:39
Перевод 1: Профессиональный (дублированный) Дубляж со вставками Tycoon'а на не переведённые места
Перевод 2: Профессиональный (двухголосый закадровый) Tycoon
Перевод 3: Одноголосый закадровый Д. Есарев
Перевод 4: Авторский (одноголосый закадровый) А. Гаврилов
Cубтитры: Русские, Английские
Оригинальная аудиодорожка: Английский
Режиссер: Эрик Бресс, Дж. Макки Грубер / Eric Bress, J. Mackye Gruber
В ролях: Эштон Катчер, Эми Смарт, Мелора Уолтерс, Элден Хенсон, Уильям Ли Скотт, Джон Патрик Амедори, Ирен Горовая, Кевин Шмидт, Джесси Джеймс, Логан Лерман.
Описание: Мальчик Эван перенял от своего отца-психопата, ныне запертого в доме для умалишённых, странную болезнь — он не помнит некоторых эпизодов своей жизни, причем в эти моменты происходили довольно странные, а то и ужасные, события. Возмужав и поступив в колледж, Эван делает удивительное открытие. Читая дневники, которые он писал в детстве по совету врача, Эван может возвращаться в детство и своими действиями изменять будущее.-Рейтинг
-Сэмпл
Тип релиза: BDRip 1080p
Контейнер: MKV
Видео: 1920x1080 (16:9), 23.976 fps, x264, ~16500 kbps | Encode by DON
Аудио 1: Russian: 48 kHz, AC3, 3/2 (L,C,R,l,r) + LFE ch, ~384 kbps | Дубляж + вставки DVO Tycoon
Аудио 2: Russian: 48 kHz, AC3, 3/2 (L,C,R,l,r) + LFE ch, ~448 kbps | Двухголосый закадровый, Tycoon
Аудио 3: Russian: 48 kHz, DTS, 3/2 (L,C,R,l,r) + LFE ch, ~1509 kbps | Одноголосый закадровый, Д. Есарев
Аудио 4: Russian: 48 kHz, DTS, 3/2 (L,C,R,l,r) + LFE ch, ~1509 kbps | Одноголосый закадровый, А. Гаврилов
Аудио 5: English: 48 kHz, DTS-ES, 6/1 ch, ~1509 kbps
Аудио 6: English: 48 kHz, AC3, 2/0 (L,R) ch, ~192 kbps | Commentary by Co-Directors and Co-Screenwriters Eric Bress and J. Mackye Gruber
Субтитры: Русские (Full), Английские (Full, SDH)
Формат субтитров: softsub (SRT)

Дополнительно

SOURCE 1......: The Butterfly Effect 2004 1080p Blu-ray AVC DTS-HD MA 5.1 (thx ProRockIlya)
SOURCE 2......: The Butterfly Effect 2004 2in1 1080p Blu-ray AVC DTS-HD MA 6.1 (thx violator99)
RELEASE DATE..: 24/08/2016
За чистый голос А. Гаврилова спасибо dunhill200.
Перевод Д. Есарева, доступен благодаря ресурсу "Переулок Переводмана". Заказ и работа со звуком mihaildns.
Русские субтитры синхронизированы, исправлены ошибки распознавания.

MediaInfo


Общее
Unique ID : 209229837356108793560891344745063388767 (0x9D68336E55F46C9C80DB98174A4A165F)
Complete name : E:\video_rutracker\The.Butterfly.Effect.2004.D.C.Hybrid.1080p.BluRay.4xRus.Eng.x264.mkv
Format : Matroska
Format version : Version 2
File size : 18,4 Гбайт
Duration : 1 ч. 59 м.
Overall bit rate : 22,0 Мбит/сек
Movie name : The.Butterfly.Effect.2004.D.C 1080p | RuTracker | igrok2012
Encoded date : UTC 2016-08-25 12:32:52
Writing application : mkvmerge v8.3.0 ('Over the Horizon') 64bit
Writing library : libebml v1.3.1 + libmatroska v1.4.2
Cover : Yes
Attachments : cover.jpg
Видео
ID : 1
Format : AVC
Format/Info : Advanced Video Codec
Format profile : High@L4.1
Format settings, CABAC : Да
Format settings, ReFrames : 4 кадра
Codec ID : V_MPEG4/ISO/AVC
Duration : 1 ч. 59 м.
Bit rate : 16,5 Мбит/сек
Width : 1920 пикселей
Height : 1080 пикселей
Display aspect ratio : 16:9
Frame rate mode : Постоянный
Frame rate : 23,976 (24000/1001) кадра/сек
Color space : YUV
Chroma subsampling : 4:2:0
Bit depth : 8 бит
Scan type : Прогрессивная
Bits/(Pixel*Frame) : 0.332
Stream size : 13,4 Гбайт (73%)
Title : Encode by DON
Writing library : x264 core 148 r2705kMod 3f5ed56
Encoding settings : cabac=1 / ref=4 / deblock=1:-3:-3 / analyse=0x3:0x133 / me=umh / subme=10 / psy=1 / fade_compensate=0.00 / psy_rd=0.95:0.00 / mixed_ref=1 / me_range=48 / chroma_me=1 / trellis=2 / 8x8dct=1 / cqm=0 / deadzone=21,11 / fast_pskip=0 / chroma_qp_offset=-2 / threads=12 / lookahead_threads=2 / sliced_threads=0 / nr=0 / decimate=0 / interlaced=0 / bluray_compat=0 / constrained_intra=0 / fgo=0 / bframes=8 / b_pyramid=2 / b_adapt=2 / b_bias=0 / direct=3 / weightb=1 / open_gop=0 / weightp=2 / keyint=250 / keyint_min=23 / scenecut=40 / intra_refresh=0 / rc=2pass / mbtree=0 / bitrate=16500 / ratetol=1.0 / qcomp=0.65 / qpmin=0 / qpmax=69 / qpstep=4 / cplxblur=20.0 / qblur=0.5 / ip_ratio=1.20 / pb_ratio=1.10 / aq=3:0.75
Language : English
Default : Да
Forced : Нет
Аудио #1
ID : 2
Format : AC-3
Format/Info : Audio Coding 3
Mode extension : CM (complete main)
Format settings, Endianness : Big
Codec ID : A_AC3
Duration : 1 ч. 59 м.
Bit rate mode : Постоянный
Bit rate : 384 Кбит/сек
Channel(s) : 6 каналов
Channel positions : Front: L C R, Side: L R, LFE
Sampling rate : 48,0 КГц
Frame rate : 31,250 кадров/сек (1536 spf)
Compression mode : С потерями
Stream size : 329 Мбайт (2%)
Title : Дубляж + вставки DVO Tycoon
Language : Russian
Default : Да
Forced : Нет
Аудио #2
ID : 3
Format : AC-3
Format/Info : Audio Coding 3
Mode extension : CM (complete main)
Format settings, Endianness : Big
Codec ID : A_AC3
Duration : 1 ч. 59 м.
Bit rate mode : Постоянный
Bit rate : 448 Кбит/сек
Channel(s) : 6 каналов
Channel positions : Front: L C R, Side: L R, LFE
Sampling rate : 48,0 КГц
Frame rate : 31,250 кадров/сек (1536 spf)
Compression mode : С потерями
Stream size : 383 Мбайт (2%)
Title : Двухголосый закадровый, Tycoon
Language : Russian
Default : Нет
Forced : Нет
Аудио #3
ID : 4
Format : DTS
Format/Info : Digital Theater Systems
Mode : 16
Format settings, Endianness : Big
Codec ID : A_DTS
Duration : 1 ч. 59 м.
Bit rate mode : Постоянный
Bit rate : 1509 Кбит/сек
Channel(s) : 6 каналов
Channel positions : Front: L C R, Side: L R, LFE
Sampling rate : 48,0 КГц
Frame rate : 93,750 кадра/сек (512 spf)
Bit depth : 24 бит
Compression mode : С потерями
Stream size : 1,26 Гбайт (7%)
Title : Одноголосый закадровый, Д.Есарев
Language : Russian
Default : Нет
Forced : Нет
Аудио #4
ID : 5
Format : DTS
Format/Info : Digital Theater Systems
Mode : 16
Format settings, Endianness : Big
Codec ID : A_DTS
Duration : 1 ч. 59 м.
Bit rate mode : Постоянный
Bit rate : 1509 Кбит/сек
Channel(s) : 6 каналов
Channel positions : Front: L C R, Side: L R, LFE
Sampling rate : 48,0 КГц
Frame rate : 93,750 кадра/сек (512 spf)
Bit depth : 24 бит
Compression mode : С потерями
Stream size : 1,26 Гбайт (7%)
Title : Одноголосый закадровый, А.Гаврилов
Language : Russian
Default : Нет
Forced : Нет
Аудио #5
ID : 6
Format : DTS
Format/Info : Digital Theater Systems
Format profile : ES Discrete / Core
Mode : 16
Format settings, Endianness : Big
Codec ID : A_DTS
Duration : 1 ч. 59 м.
Bit rate mode : Постоянный
Bit rate : 1509 Кбит/сек
Channel(s) : 7 каналов / 6 каналов
Channel positions : Front: L C R, Side: L R, Back: C, LFE / Front: L C R, Side: L R, LFE
Sampling rate : 48,0 КГц
Frame rate : 93,750 кадра/сек (512 spf)
Bit depth : 24 бит
Compression mode : С потерями
Stream size : 1,26 Гбайт (7%)
Language : English
Default : Нет
Forced : Нет
Аудио #6
ID : 7
Format : AC-3
Format/Info : Audio Coding 3
Mode extension : CM (complete main)
Format settings, Endianness : Big
Codec ID : A_AC3
Duration : 1 ч. 59 м.
Bit rate mode : Постоянный
Bit rate : 192 Кбит/сек
Channel(s) : 2 канала
Channel positions : Front: L R
Sampling rate : 48,0 КГц
Frame rate : 31,250 кадров/сек (1536 spf)
Compression mode : С потерями
Stream size : 164 Мбайт (1%)
Title : Commentary by Co-Directors and Co-Screenwriters Eric Bress and J. Mackye Gruber
Language : English
Default : Нет
Forced : Нет
Текст #1
ID : 8
Format : UTF-8
Codec ID : S_TEXT/UTF8
Codec ID/Info : UTF-8 Plain Text
Language : Russian
Default : Нет
Forced : Нет
Текст #2
ID : 9
Format : UTF-8
Codec ID : S_TEXT/UTF8
Codec ID/Info : UTF-8 Plain Text
Language : English
Default : Нет
Forced : Нет
Текст #3
ID : 10
Format : UTF-8
Codec ID : S_TEXT/UTF8
Codec ID/Info : UTF-8 Plain Text
Title : SDH
Language : English
Default : Нет
Forced : Нет
Меню
00:00:00.000 : en:The Beginning
00:06:29.014 : en:Two Fathers
00:11:17.677 : en:Six Years Later
00:16:29.197 : en:No Memory
00:22:48.576 : en:The Junkyard
00:26:49.900 : en:Seven Years Later
00:31:20.504 : en:Opening Up the Past
00:38:53.540 : en:Dinner Talk
00:44:16.028 : en:Unwanted Memories
00:51:03.185 : en:Healing Scars
00:54:35.481 : en:Fraternity Life
01:02:38.546 : en:A Special Night
01:09:47.308 : en:Incarcerated
01:16:08.189 : en:Breakout
01:20:27.197 : en:Day of Atonement
01:27:32.956 : en:Kayleigh Hears the Truth
01:34:01.344 : en:Sacrifices
01:42:03.951 : en:Saving Mom
01:47:12.843 : en:Institutionalized
01:51:03.365 : en:Final Solution
01:53:55.912 : en:End Credits

Скриншоты

Скриншоты сравнения

DON | -DaRkY-


_________________
Показать сообщения:    

Текущее время: Сегодня 13:20

Часовой пояс: GMT



Вы не можете начинать темы
Вы не можете отвечать на сообщения
Вы не можете редактировать свои сообщения
Вы не можете удалять свои сообщения
Вы не можете голосовать в опросах
Вы не можете прикреплять файлы к сообщениям
Вы не можете скачивать файлы