Важное объявление!
У Нас Все раздачи мультитрекерные, при нуле пиров в релизах, можете смело вставать на закачку!
 
Автор Сообщение

димитри37

Стаж:
3 года 8 месяцев
Сообщений:
1237

Репутация: 127

[+] [-]
Вне форума [Профиль] [ЛС]

Это в крови / It's in the Blood-
Страна: США
Жанр: ужасы, триллер, драма
Год выпуска: 2012
Продолжительность: 01:20:06-Перевод: Одноголосый закадровый [den904]
Субтитры: нет
Режиссёр: Скутер Дауни / Scooter Downey
В ролях: Лэнс Хенриксен, Шон Эллиот, Rose Sirna, Джимми Гонзалес, Доран Ингрэм, Эндрю Варенхорст, Камерон Уоффорд, Дог, Гари Тиг, Samantha Vine-Описание: Отец и сын отправляются в поход и оказываются в самой глуши дикого леса. Теперь им обоим предстоит сражаться с ужасами прошлого и бороться за свою жизнь в настоящем.-

-Сценарий: Шон Эллиот / Sean Elliot
Продюсер: Шон Эллиот / Sean Elliot, Натали Энджел / Natalie Angel, Хавьер Бонафонт / Javier Bonafont, Билл Хойманн / Bill Heumann
Оператор: Майкл Алан Симпсон / Mike Simpson
Композитор: Дидье Рашу / Didier Rachou
Мировая премьера: 28 января 2012-Качество: DVDRip
Контейнер: AVI
Видео: XviD, 720x400 (16:9), 2124 kbps, 23,976 fps, 0,308 bpp
Аудио: 48 kHz, AC3 Dolby Digital, 3/2 (L,C,R,l,r) ch, ~320 kbps-

Media Info

General
Complete name : G:\Its.In.The.Blood.2012.L1.DVDRip.1400.avi
Format : AVI
Format/Info : Audio Video Interleave
File size : 1.37 GiB
Duration : 1h 20mn
Overall bit rate : 2 454 Kbps
Writing application : VirtualDubMod 1.5.10.2 (build 2540/release)
Writing library : VirtualDubMod build 2540/release
Video
ID : 0
Format : MPEG-4 Visual
Format profile : Advanced Simple@L5
Format settings, BVOP : 1
Format settings, QPel : No
Format settings, GMC : No warppoints
Format settings, Matrix : Default (H.263)
Codec ID : XVID
Codec ID/Hint : XviD
Duration : 1h 20mn
Bit rate : 2 124 Kbps
Width : 720 pixels
Height : 400 pixels
Display aspect ratio : 16:9
Frame rate : 23.976 fps
Color space : YUV
Chroma subsampling : 4:2:0
Bit depth : 8 bits
Scan type : Progressive
Compression mode : Lossy
Bits/(Pixel*Frame) : 0.308
Stream size : 1.19 GiB (87%)
Writing library : XviD 1.2.1 (UTC 2008-12-04)
Audio
ID : 1
Format : AC-3
Format/Info : Audio Coding 3
Mode extension : CM (complete main)
Codec ID : 2000
Duration : 1h 20mn
Bit rate mode : Constant
Bit rate : 320 Kbps
Channel(s) : 5 channels
Channel positions : Front: L C R, Side: L R
Sampling rate : 48.0 KHz
Bit depth : 16 bits
Compression mode : Lossy
Stream size : 183 MiB (13%)
Alignment : Split accross interleaves
Interleave, duration : 42 ms (1.00 video frame)
Interleave, preload duration : 500 ms

Скриншот с названием фильма

Скриншоты

Показать сообщения:    

Текущее время: Сегодня 16:06

Часовой пояс: GMT



Вы не можете начинать темы
Вы не можете отвечать на сообщения
Вы не можете редактировать свои сообщения
Вы не можете удалять свои сообщения
Вы не можете голосовать в опросах
Вы не можете прикреплять файлы к сообщениям
Вы не можете скачивать файлы