Важное объявление!
У Нас Все раздачи мультитрекерные, при нуле пиров в релизах, можете смело вставать на закачку!
 
Автор Сообщение

HUNTER

Стаж:
4 года 4 месяца
Сообщений:
56853

Репутация: 101

[+] [-]
Вне форума [Профиль] [ЛС]

Это, блин, рождественское чудо / A Merry Friggin' Christmas
Страна: США
Жанр: комедия
Год выпуска: 2014
Продолжительность: 01:21:45-Перевод: Одноголосый закадровый [R.A.I.M]
Оригинальная аудиодорожка: английская
Cубтитры: английские-Режиссер: Тристрам Шапиро / Tristram Shapeero-В ролях: Джоэл МакХэйл, Лорен Грэм, Кларк Дьюк, Оливер Платт, Венди МакЛендон-Кови, Тим Хайдекер, Кэндис Берген, Робин Уильямс, Мэтт Джонс, Джеффри Тэмбор-Описание: Бойд Митчлер и его жена Луанн решают провести Рождество с отцом Бойда Митчем и его, мягко выражаясь, странноватым семейством. Сообразив, что он забыл дома все подарки, Бойд в компании брата и отца прыгает в машину и пытается совершить невозможное: съездить домой и вернуться обратно до рассвета.-Сэмпл: http://multi-up.com/1068658-Тип релиза: BDRemux 1080p
Контейнер: MKV-Видео: MPEG4-AVC, NTSC, 15000 kbps, 1920x1080 16:9 23,976 fps
Аудио 1: AC3 5.1 48kHz 384 kbps (Rus)
Аудио 2: DTS 5.1 48 kHz 1509 kbps 24-bit (Eng)
Формат субтитров: softsub (SRT)

MediaInfo

Общее
Уникальный идентификатор : 180647181445500612212738570202797325804 (0x87E761B14AA321BC8E56F5A184BC3DEC)
Полное имя : J:\Это, блин, рождественское чудо (VO) BDRemux 1080p.mkv
Формат : Matroska
Версия формата : Version 2
Размер файла : 9,65 Гбайт
Продолжительность : 1 ч. 21 м.
Режим общего битрейта : Переменный
Общий поток : 16,9 Мбит/сек
Дата кодирования : UTC 2015-09-23 19:28:51
Программа кодирования : mkvmerge v4.0.0 ('The Stars were mine') сборка от Jun 6 2010 16:18:42
Библиотека кодирования : libebml v1.0.0 + libmatroska v1.0.0
Видео
Идентификатор : 1
Формат : AVC
Формат/Информация : Advanced Video Codec
Профиль формата : High@L4.1
Параметр CABAC формата : Да
Параметр ReFrames формата : 4 кадра
Режим смешивания : Container profile=Unknown@0.0
Идентификатор кодека : V_MPEG4/ISO/AVC
Продолжительность : 1 ч. 21 м.
Вид битрейта : Переменный
Битрейт : 14,7 Мбит/сек
Максимальный битрейт : 35,0 Мбит/сек
Ширина : 1920 пикселей
Высота : 1080 пикселей
Соотношение сторон : 16:9
Режим частоты кадров : Постоянный
Частота кадров : 23,976 кадра/сек
Стандарт вещания : NTSC
Цветовое пространство : YUV
Субдискретизация насыщенности : 4:2:0
Битовая глубина : 8 бит
Тип развёртки : Прогрессивная
Бит/(Пиксели*Кадры) : 0.295
Размер потока : 8,37 Гбайт (87%)
Default : Нет
Forced : Нет
Основные цвета : BT.709
Характеристики трансфера : BT.709
Коэффициенты матрицы : BT.709
Аудио #1
Идентификатор : 2
Формат : AC-3
Формат/Информация : Audio Coding 3
Расширение режима : CM (complete main)
Параметр Endianness формата : Big
Идентификатор кодека : A_AC3
Продолжительность : 1 ч. 21 м.
Вид битрейта : Постоянный
Битрейт : 384 Кбит/сек
Каналы : 6 каналов
Расположение каналов : Front: L C R, Side: L R, LFE
Частота : 48,0 КГц
Битовая глубина : 16 бит
Метод сжатия : С потерями
Размер потока : 225 Мбайт (2%)
Язык : Russian
Default : Да
Forced : Нет
Аудио #2
Идентификатор : 3
Формат : DTS
Формат/Информация : Digital Theater Systems
Режим : 16
Параметр Endianness формата : Big
Идентификатор кодека : A_DTS
Продолжительность : 1 ч. 21 м.
Вид битрейта : Постоянный
Битрейт : 1510 Кбит/сек
Каналы : 6 каналов
Расположение каналов : Front: L C R, Side: L R, LFE
Частота : 48,0 КГц
Битовая глубина : 24 бит
Метод сжатия : С потерями
Размер потока : 883 Мбайт (9%)
Язык : English
Default : Нет
Forced : Нет
Текст
Идентификатор : 4
Формат : UTF-8
Идентификатор кодека : S_TEXT/UTF8
Идентификатор кодека/Информация : UTF-8 Plain Text
Язык : English
Default : Нет
Forced : Нет

Скриншоты


_________________
Показать сообщения:    

Текущее время: Сегодня 14:14

Часовой пояс: GMT



Вы не можете начинать темы
Вы не можете отвечать на сообщения
Вы не можете редактировать свои сообщения
Вы не можете удалять свои сообщения
Вы не можете голосовать в опросах
Вы не можете прикреплять файлы к сообщениям
Вы не можете скачивать файлы
Наши партнеры: интернет магазин Ивановского трикотажа textilla.ru