Важное объявление!
У Нас Все раздачи мультитрекерные, при нуле пиров в релизах, можете смело вставать на закачку!
 
Автор Сообщение

HUNTER

Стаж:
4 года 4 месяца
Сообщений:
56798

Репутация: 101

[+] [-]
Вне форума [Профиль] [ЛС]

Эротическая пластика-

Год выпуска: 2006
Страна: Россия
Сайт производителя: отсутствует
Тематика: Танцы
Тип материала: Обучающее видео-Продолжительность: 01:08:42
Автор: не известен-Язык: Русский
Субтитры: Не требуется-Описание: Эротическая пластика - это гибкость, пластика тела и сексуальность, что всегда и в любой ситуаций усиливает привлекательность женщины, делает ее неотразимой в глазах мужчины.
Именно занятия эротической пластикой изменят вашу жизнь, принесут успех и завистливые взгляды окружающих… Новая программа из серии "Потанцуем!" включает в себя и упражнения, направленные на развитие гибкости тела и пластики рук, растяжки, танцевальные элементы и готовые танцевальные комбинации. Используя танцевальные элементы программы, можно создать собственную танцевальную импровизацию под любую музыку.
Занимайтесь по программе "эротическая пластика" и Ваша тайная фантазия - возможность соблазнительно показать себя в фейерверке танца, сохранив при этом легкость и непринужденность - осуществится. Программа "эротическая пластика" эффективна как для женщин, так и для смелых мужчин.
-Качество: TVRip
Формат: AVI
Видео кодек: XviD MPEG-4
Аудио кодек: MPEG Layer 3
Видео: 512x384 (1.33:1), 25 fps, XviD MPEG-4 ~649 kbps avg, 0.13 bit/pixel
Аудио: 48 kHz, MPEG Layer 3, 2 ch, ~119.30 kbps avg-

MediaInfo

Код: copyText_writeLink('this.parentNode.parentNode.nextSibling.nextSibling'); General
Complete name : E:\Обучение\Eroplastika.avi
Format : AVI
Format/Info : Audio Video Interleave
File size : 384 MiB
Duration : 1h 8mn
Overall bit rate mode : Variable
Overall bit rate : 782 Kbps
Video
ID : 0
Format : MPEG-4 Visual
Format profile : Advanced Simple@L5
Format settings, BVOP : 2
Format settings, QPel : Yes
Format settings, GMC : No warppoints
Format settings, Matrix : Custom
Muxing mode : Packed bitstream
Codec ID : XVID
Codec ID/Hint : XviD
Duration : 1h 8mn
Bit rate : 650 Kbps
Width : 512 pixels
Height : 384 pixels
Display aspect ratio : 3:2
Frame rate : 25.000 fps
Color space : YUV
Chroma subsampling : 4:2:0
Bit depth : 8 bits
Scan type : Progressive
Compression mode : Lossy
Bits/(Pixel*Frame) : 0.132
Stream size : 319 MiB (83%)
Writing library : XviD 1.2.0SMP (UTC 2006-01-08)
Audio
ID : 1
Format : MPEG Audio
Format version : Version 1
Format profile : Layer 3
Mode : Joint stereo
Mode extension : MS Stereo
Codec ID : 55
Codec ID/Hint : MP3
Duration : 1h 8mn
Bit rate mode : Variable
Bit rate : 119 Kbps
Channel(s) : 2 channels
Sampling rate : 48.0 KHz
Compression mode : Lossy
Stream size : 58.6 MiB (15%)
Alignment : Aligned on interleaves
Interleave, duration : 24 ms (0.60 video frame)
Interleave, preload duration : 131 ms
Title : 8
- -

_________________
Показать сообщения:    

Текущее время: Сегодня 02:37

Часовой пояс: GMT



Вы не можете начинать темы
Вы не можете отвечать на сообщения
Вы не можете редактировать свои сообщения
Вы не можете удалять свои сообщения
Вы не можете голосовать в опросах
Вы не можете прикреплять файлы к сообщениям
Вы не можете скачивать файлы