Важное объявление!
У Нас Все раздачи мультитрекерные, при нуле пиров в релизах, можете смело вставать на закачку!
 
Автор Сообщение

димитри37

Стаж:
3 года 8 месяцев
Сообщений:
1237

Репутация: 127

[+] [-]
Вне форума [Профиль] [ЛС]

Эпик / Epic«Исследуй мир за пределами своего воображения»
Страна: США
Студия: 20th Century Fox Animation, Blue Sky Studios
Жанр: мультфильм, фэнтези, приключения, семейный
Продолжительность: 1h 42mn 29s
Год выпуска: 2013
Перевод: Профессиональный (дублированный) [iTunes Russia]
Русские субтитры: нет
Режиссёр: Крис Уэдж / Chris Wedge
Роли озвучивали: Аманда Сайфред, Джош Хатчерсон, Колин Фаррелл, Джейсон Судейкис, Азис Ансари, Крис О'Дауд, Кристоф Вальц, Стивен Тайлер, Бейонсе Ноулз, Эллисон Биллс, Блейк Андерсон...
Роли дублировали: Юлия Савичева, Петр Иващенко, Илья Исаев, Никита Прозоровский, Диомид Виноградов...
Описание После долгой разлуки юная Мэри Кэтрин возвращается в дом, где отшельником живет ее отец, безумный профессор Бомба. Однако тот совсем не обращает внимания на дочь и одержим лишь одной идеей — изучить скрытый от посторонних глаз таинственный лесной мир. Девушка отказывается верить, что под ногами человечества идет вечная борьба между армиями, воюющими на сторонах добра и зла. Чудесным образом Мэри Кэтрин уменьшается в размерах и знакомится с маленькими воинами. Теперь от нее зависит спасение не только волшебного лесного, но и реального человеческого мира.

Качество: BDRip-AVC [Epic.2013.BDRemux.1080p]
Формат: MKV
Видео: AVC 2280 Kbps 1072 x 448 (2.393) at 23.976 fps
Аудио: AC-3 384 Kbps 6 channels, 48.0 KHz Rus Dub [iTunes Russia]
Аудио 2: AC-3 384 Kbps 6 channels, 48.0 KHz Eng
Субтитры: Eng SRT

Log

raw [info]: 1072x448p 1:1 @ 2500000/104271 fps (cfr)
x264 [info]: using SAR=1/1
x264 [info]: using cpu capabilities: MMX2 SSE2Fast SSSE3 SSE4.2 AVX
x264 [info]: profile High, level 4.1
x264 [info]: frame I:1341 Avg QP:13.73 size: 86682
x264 [info]: frame P:38162 Avg QP:18.02 size: 24606
x264 [info]: frame B:107929 Avg QP:22.06 size: 6460
x264 [info]: consecutive B-frames: 3.9% 4.3% 14.0% 34.1% 17.7% 17.7% 2.7% 1.3% 4.2%
x264 [info]: mb I I16..4: 7.3% 61.8% 30.9%
x264 [info]: mb P I16..4: 1.4% 11.9% 2.4% P16..4: 29.6% 31.1% 11.8% 3.2% 0.6% skip: 8.0%
x264 [info]: mb B I16..4: 0.2% 1.8% 0.3% B16..8: 31.5% 15.6% 2.6% direct: 3.9% skip:44.1% L0:40.5% L1:44.7% BI:14.8%
x264 [info]: 8x8 transform intra:74.6% inter:57.8%
x264 [info]: direct mvs spatial:90.9% temporal:9.1%
x264 [info]: coded y,uvDC,uvAC intra: 85.8% 86.7% 61.8% inter: 18.8% 16.7% 5.2%
x264 [info]: i16 v,h,dc,p: 14% 18% 5% 63%
x264 [info]: i8 v,h,dc,ddl,ddr,vr,hd,vl,hu: 7% 8% 4% 10% 14% 13% 15% 13% 16%
x264 [info]: i4 v,h,dc,ddl,ddr,vr,hd,vl,hu: 8% 10% 4% 9% 16% 14% 15% 11% 14%
x264 [info]: i8c dc,h,v,p: 40% 24% 16% 20%
x264 [info]: Weighted P-Frames: Y:3.5% UV:1.8%
x264 [info]: ref P L0: 52.6% 11.3% 15.2% 6.0% 3.9% 3.1% 2.4% 1.5% 1.3% 1.2% 1.2% 0.3% 0.0%
x264 [info]: ref B L0: 79.9% 8.4% 5.2% 2.4% 1.5% 1.0% 0.7% 0.4% 0.3% 0.2%
x264 [info]: ref B L1: 93.8% 6.2%
x264 [info]: kb/s:2280.01
x264 [total]: encoded 147432 frames, 11.81 fps, 2280.02 kb/s

Медиаинфо

Format : MatroskaFormat version : Version 4 / Version 2File size : 2.18 GiBDuration : 1h 42mnOverall bit rate : 3 050 KbpsEncoded date : UTC 2013-08-11 17:49:16Writing application : mkvmerge v6.2.0 ('Promised Land') built on Apr 28 2013 12:22:01Writing library : libebml v1.3.0 + libmatroska v1.4.0
VideoID : 1Format : AVCFormat/Info : Advanced Video CodecFormat profile : High@L4.1Format settings, CABAC : YesFormat settings, ReFrames : 11 framesCodec ID : V_MPEG4/ISO/AVCDuration : 1h 42mnBit rate : 2 280 KbpsWidth : 1 072 pixelsHeight : 448 pixelsDisplay aspect ratio : 2.40:1Frame rate mode : ConstantFrame rate : 23.976 fpsColor space : YUVChroma subsampling : 4:2:0Bit depth : 8 bitsScan type : ProgressiveBits/(Pixel*Frame) : 0.198Stream size : 1.59 GiB (73%)Writing library : x264 core 135 r2345 f0c1c53Encoding settings : cabac=1 / ref=11 / deblock=1:-2:-1 / analyse=0x3:0x133 / me=umh / subme=11 / psy=1 / psy_rd=1.00:0.05 / mixed_ref=1 / me_range=48 / chroma_me=1 / trellis=2 / 8x8dct=1 / cqm=0 / deadzone=21,11 / fast_pskip=0 / chroma_qp_offset=-3 / threads=12 / lookahead_threads=2 / sliced_threads=0 / nr=0 / decimate=1 / interlaced=0 / bluray_compat=0 / constrained_intra=0 / bframes=8 / b_pyramid=2 / b_adapt=2 / b_bias=0 / direct=3 / weightb=1 / open_gop=0 / weightp=2 / keyint=250 / keyint_min=23 / scenecut=40 / intra_refresh=0 / rc_lookahead=60 / rc=2pass / mbtree=1 / bitrate=2280 / ratetol=1.0 / qcomp=0.60 / qpmin=0 / qpmax=69 / qpstep=4 / cplxblur=20.0 / qblur=0.5 / ip_ratio=1.40 / aq=1:1.00Language : EnglishDefault : YesForced : No
Audio #1ID : 2Format : AC-3Format/Info : Audio Coding 3Mode extension : CM (complete main)Format settings, Endianness : BigCodec ID : A_AC3Duration : 1h 42mnBit rate mode : ConstantBit rate : 384 KbpsChannel(s) : 6 channelsChannel positions : Front: L C R, Side: L R, LFESampling rate : 48.0 KHzBit depth : 16 bitsCompression mode : LossyStream size : 281 MiB (13%)Title : Rus (Dub) iTunesLanguage : RussianDefault : YesForced : No
Audio #2ID : 3Format : AC-3Format/Info : Audio Coding 3Mode extension : CM (complete main)Format settings, Endianness : BigCodec ID : A_AC3Duration : 1h 42mnBit rate mode : ConstantBit rate : 384 KbpsChannel(s) : 6 channelsChannel positions : Front: L C R, Side: L R, LFESampling rate : 48.0 KHzBit depth : 16 bitsCompression mode : LossyStream size : 281 MiB (13%)Title : Eng (Original)Language : EnglishDefault : NoForced : No
TextID : 4Format : UTF-8Codec ID : S_TEXT/UTF8Codec ID/Info : UTF-8 Plain TextTitle : EngLanguage : EnglishDefault : YesForced : No

Скриншоты

-Источник:
Показать сообщения:    

Текущее время: Сегодня 02:18

Часовой пояс: GMT



Вы не можете начинать темы
Вы не можете отвечать на сообщения
Вы не можете редактировать свои сообщения
Вы не можете удалять свои сообщения
Вы не можете голосовать в опросах
Вы не можете прикреплять файлы к сообщениям
Вы не можете скачивать файлы