Важное объявление!
У Нас Все раздачи мультитрекерные, при нуле пиров в релизах, можете смело вставать на закачку!
 
Автор Сообщение

HUNTER

Стаж:
4 года 4 месяца
Сообщений:
56848

Репутация: 101

[+] [-]
Вне форума [Профиль] [ЛС]

Энеида / Енеїда-
Год выпуска: 1991
Страна: СССР / Украина
Жанр: Мультфильм
Продолжительность: 01:08:35
Перевод: Субтитры
Режиссер: Владимир Дахно
В ролях: Текст читает А. Подубинський
Описание:
По мотивам одноименной поэмы И. П. Котляревского «Энеида».
Эней за время своего путешествия успел побывать и в раю и в аду. Но везде он оставался настоящим козаком, способным с честью выйти из любой ситуации
Доп. информация: сделано из DVD5. Обрезаны чёрные поля, изображение частично очищено от черных крапинок и полосок
Качество: DVDRip-AVC
Формат: MKV
Видео: 692x570@738x570 (1.295:1), 25 fps, H264, ~1 993 Kbps avg
Аудио: Українська, 48 kHz, AC3 Dolby Digital, 2/0 (L,R) ch, ~192 kbps
Субтитры:
1. Русские [в переводе Бражнина Ильи Яковлевича, 1953 г.]
2. Русские [в переводе Веры Аркадьевны Потаповой, 1961 г.]
Релиз группы:
Благодарность: За помощь в подготовке релиза - хfiles

MediaInfo

General
Complete name : D:\Mult\Rip78 eneida\Eneyida.H264.mkv
Format : Matroska
File size : 1.07 GiB
Duration : 1h 8mn
Overall bit rate : 2 229 Kbps
Encoded date : UTC 2011-02-22 07:57:03
Writing application : mkvmerge v4.5.0 ('Speed of Light') зібрано Feb 1 2011 02:10:32
Writing library : libebml v1.2.0 + libmatroska v1.1.0
Video
ID : 1
Format : AVC
Format/Info : Advanced Video Codec
Format profile : High@L4.0
Format settings, CABAC : Yes
Format settings, ReFrames : 16 frames
Format settings, GOP : M=1, N=7
Codec ID : V_MPEG4/ISO/AVC
Duration : 1h 8mn
Bit rate : 1 993 Kbps
Width : 692 pixels
Height : 570 pixels
Display aspect ratio : 4:3
Original display aspect ratio : 1.295
Frame rate : 25.000 fps
Color space : YUV
Chroma subsampling : 4:2:0
Bit depth : 8 bits
Scan type : Progressive
Bits/(Pixel*Frame) : 0.202
Stream size : 978 MiB (89%)
Writing library : x264 core 113 r1884kMod 7313bb5
Encoding settings : cabac=1 / ref=16 / deblock=1:-1:-1 / analyse=0x3:0x113 / me=umh / subme=10 / psy=1 / fade_compensate=0.00 / psy_rd=1.00:0.10 / mixed_ref=1 / me_range=24 / chroma_me=1 / trellis=2 / 8x8dct=1 / cqm=0 / deadzone=21,11 / fast_pskip=0 / chroma_qp_offset=-3 / threads=6 / sliced_threads=0 / nr=0 / decimate=1 / interlaced=0 / constrained_intra=0 / bframes=9 / b_pyramid=2 / b_adapt=2 / b_bias=0 / direct=1 / weightb=1 / open_gop=0 / weightp=2 / keyint=250 / keyint_min=25 / scenecut=40 / intra_refresh=0 / rc_lookahead=60 / rc=crf / mbtree=1 / crf=18.0000 / qcomp=0.60 / qpmin=0 / qpmax=69 / qpstep=4 / ip_ratio=1.40 / aq=2:1.00
Audio
ID : 2
Format : AC-3
Format/Info : Audio Coding 3
Mode extension : CM (complete main)
Codec ID : A_AC3
Duration : 1h 8mn
Bit rate mode : Constant
Bit rate : 192 Kbps
Channel(s) : 2 channels
Channel positions : Front: L R
Sampling rate : 48.0 KHz
Bit depth : 16 bits
Stream size : 94.2 MiB (9%)
Text #1
ID : 3
Format : UTF-8
Codec ID : S_TEXT/UTF8
Codec ID/Info : UTF-8 Plain Text
Text #2
ID : 4
Format : UTF-8
Codec ID : S_TEXT/UTF8
Codec ID/Info : UTF-8 Plain Text
Menu
00:00:00.000 : :Troyanska Sich
00:05:13.200 : :Bogy ta Bogyni
00:16:18.800 : :Karfagen
00:29:29.400 : :Kumska Zemlya
00:43:39.400 : :Rym

Скриншоты


_________________
Показать сообщения:    

Текущее время: Сегодня 06:38

Часовой пояс: GMT



Вы не можете начинать темы
Вы не можете отвечать на сообщения
Вы не можете редактировать свои сообщения
Вы не можете удалять свои сообщения
Вы не можете голосовать в опросах
Вы не можете прикреплять файлы к сообщениям
Вы не можете скачивать файлы
Наши партнеры: интернет магазин Ивановского трикотажа textilla.ru