Важное объявление!
У Нас Все раздачи мультитрекерные, при нуле пиров в релизах, можете смело вставать на закачку!
 
Автор Сообщение

HUNTER

Стаж:
4 года 4 месяца
Сообщений:
56755

Репутация: 101

[+] [-]
Вне форума [Профиль] [ЛС]

Эмпайр Стэйт / Empire State
Страна: США
Студия: Grosvenor Park Media, Swift Street Productions
Жанр: боевик, драма
Год выпуска: 2013
Продолжительность: 01:34:20
Перевод: Профессиональный (многоголосый закадровый) R5
Перевод 2: Любительский (двухголосый закадровый)
Перевод 3: Авторский (одноголосый закадровый) Л.Володарский
Cубтитры: английские (full, SDH)
Оригинальная аудиодорожка: английский
Режиссер: Дито Монтиель / Dito Montiel
В ролях: Лиам Хемсворт, Дуэйн Джонсон, Эмма Робертс, Никки Рид, Шеней Граймс, Майкл Ангарано, Джерри Феррара, Крис Диамантополос, Джеймс Рэнсон, Джина Мантенья
Описание: В этом фильме, основанном на реальных событиях, речь пойдет о произошедшем в 1982 году в Нью-Йорке ограблении инкассаторских бронеавтомобилей, которое на тот момент считалось крупнейшим в США.
Сэмпл
Тип релиза: BDRip 1080p
Контейнер: MKV
Видео: MPEG4 AVC Video, H264, 16:9, 1920x800, 23.98fps, 12250 kbps
Аудио: Russian (Dolby AC3, 6 ch, 448 kbps, 16 bits, 48.0 KHz) - MVO R5
Аудио 2: Russian (Dolby AC3, 6 ch, 448 kbps, 16 bits, 48.0 KHz) - DVO
Аудио 3: Russian (DTS, 6 ch, 1509 kbps, 24 bits, 48.0 KHz) - Л.Володарский
Аудио 4: English (DTS, 6 ch, 1509 kbps, 24 bits, 48.0 KHz) - оригинал
Формат субтитров: softsub (SRT)

MediaInfo

Общее
Уникальный идентификатор : 204301527060304864719888252934080539932 (0x99B30AF9327DEFF8AFE14CEA2C6DAD1C)
Полное имя : D:\1\Empire.State.2013.BDRip.1080p.mkv
Формат : Matroska
Версия формата : Version 4 / Version 2
Размер файла : 10,7 Гбайт
Продолжительность : 1 ч. 34 м.
Общий поток : 16,2 Мбит/сек
Название фильма : Empire State
Дата кодирования : UTC 2014-03-16 12:45:59
Программа кодирования : mkvmerge v6.1.0 ('Old Devil') built on Mar 2 2013 14:32:37
Библиотека кодирования : libebml v1.3.0 + libmatroska v1.4.0
Attachment : Yes
Видео
Идентификатор : 1
Формат : AVC
Формат/Информация : Advanced Video Codec
Профиль формата : High@L4.1
Параметр CABAC формата : Да
Параметр ReFrames формата : 5 кадров
Идентификатор кодека : V_MPEG4/ISO/AVC
Продолжительность : 1 ч. 34 м.
Битрейт : 12,3 Мбит/сек
Ширина : 1920 пикселей
Высота : 800 пикселей
Соотношение сторон : 2,40:1
Режим частоты кадров : Постоянный
Частота кадров : 23,976 кадра/сек
Цветовое пространство : YUV
Субдискретизация насыщенности : 4:2:0
Битовая глубина : 8 бит
Тип развёртки : Прогрессивная
Бит/(Пиксели*Кадры) : 0.333
Размер потока : 7,86 Гбайт (74%)
Библиотека кодирования : x264 core 135 r2345 f0c1c53
Настройки программы : cabac=1 / ref=5 / deblock=1:-2:-2 / analyse=0x3:0x113 / me=umh / subme=10 / psy=1 / psy_rd=1.10:0.25 / mixed_ref=1 / me_range=32 / chroma_me=1 / trellis=2 / 8x8dct=1 / cqm=0 / deadzone=21,11 / fast_pskip=1 / chroma_qp_offset=-4 / threads=12 / lookahead_threads=2 / sliced_threads=0 / nr=0 / decimate=1 / interlaced=0 / bluray_compat=0 / constrained_intra=0 / bframes=7 / b_pyramid=2 / b_adapt=2 / b_bias=0 / direct=1 / weightb=1 / open_gop=0 / weightp=2 / keyint=240 / keyint_min=23 / scenecut=40 / intra_refresh=0 / rc_lookahead=200 / rc=2pass / mbtree=1 / bitrate=12250 / ratetol=1.0 / qcomp=0.70 / qpmin=0 / qpmax=69 / qpstep=4 / cplxblur=20.0 / qblur=0.5 / vbv_maxrate=62500 / vbv_bufsize=78125 / nal_hrd=none / ip_ratio=1.40 / aq=2:1.20
Язык : English
Default : Да
Forced : Нет
Основные цвета : BT.709
Характеристики трансфера : BT.709
Коэффициенты матрицы : BT.709
Аудио #1
Идентификатор : 2
Формат : AC-3
Формат/Информация : Audio Coding 3
Расширение режима : CM (complete main)
Параметр Endianness формата : Big
Идентификатор кодека : A_AC3
Продолжительность : 1 ч. 34 м.
Вид битрейта : Постоянный
Битрейт : 448 Кбит/сек
Каналы : 6 каналов
Расположение каналов : Front: L C R, Side: L R, LFE
Частота : 48,0 КГц
Битовая глубина : 16 бит
Метод сжатия : С потерями
Размер потока : 302 Мбайт (3%)
Заголовок : MVO R5
Язык : Russian
Default : Нет
Forced : Нет
Аудио #2
Идентификатор : 3
Формат : AC-3
Формат/Информация : Audio Coding 3
Расширение режима : CM (complete main)
Параметр Endianness формата : Big
Идентификатор кодека : A_AC3
Продолжительность : 1 ч. 34 м.
Вид битрейта : Постоянный
Битрейт : 448 Кбит/сек
Каналы : 6 каналов
Расположение каналов : Front: L C R, Side: L R, LFE
Частота : 48,0 КГц
Битовая глубина : 16 бит
Метод сжатия : С потерями
Размер потока : 302 Мбайт (3%)
Заголовок : DVO
Язык : Russian
Default : Нет
Forced : Нет
Аудио #3
Идентификатор : 4
Формат : DTS
Формат/Информация : Digital Theater Systems
Режим : 16
Параметр Endianness формата : Big
Идентификатор кодека : A_DTS
Продолжительность : 1 ч. 34 м.
Вид битрейта : Постоянный
Битрейт : 1509 Кбит/сек
Каналы : 6 каналов
Расположение каналов : Front: L C R, Side: L R, LFE
Частота : 48,0 КГц
Битовая глубина : 24 бит
Метод сжатия : С потерями
Размер потока : 1018 Мбайт (9%)
Заголовок : Л. Володарский
Язык : Russian
Default : Нет
Forced : Нет
Аудио #4
Идентификатор : 5
Формат : DTS
Формат/Информация : Digital Theater Systems
Режим : 16
Параметр Endianness формата : Big
Идентификатор кодека : A_DTS
Продолжительность : 1 ч. 34 м.
Вид битрейта : Постоянный
Битрейт : 1509 Кбит/сек
Каналы : 6 каналов
Расположение каналов : Front: L C R, Side: L R, LFE
Частота : 48,0 КГц
Битовая глубина : 24 бит
Метод сжатия : С потерями
Размер потока : 1018 Мбайт (9%)
Язык : English
Default : Нет
Forced : Нет
Текст #1
Идентификатор : 6
Формат : UTF-8
Идентификатор кодека : S_TEXT/UTF8
Идентификатор кодека/Информация : UTF-8 Plain Text
Заголовок : full
Язык : English
Default : Нет
Forced : Нет
Текст #2
Идентификатор : 7
Формат : UTF-8
Идентификатор кодека : S_TEXT/UTF8
Идентификатор кодека/Информация : UTF-8 Plain Text
Заголовок : SDH
Язык : English
Default : Нет
Forced : Нет
Меню
00:00:00.000 : en:00:00:00.000
00:06:06.157 : en:00:06:06.157
00:13:03.032 : en:00:13:03.032
00:19:22.995 : en:00:19:22.995
00:22:39.775 : en:00:22:39.775
00:27:36.071 : en:00:27:36.071
00:33:38.767 : en:00:33:38.767
00:39:55.018 : en:00:39:55.018
00:46:00.383 : en:00:46:00.383
00:52:26.143 : en:00:52:26.143
00:59:47.375 : en:00:59:47.375
01:06:38.703 : en:01:06:38.703
01:12:29.887 : en:01:12:29.887
01:20:12.808 : en:01:20:12.808
01:25:26.747 : en:01:25:26.747
01:29:23.900 : en:01:29:23.900

Скриншоты


_________________
Показать сообщения:    

Текущее время: Сегодня 13:12

Часовой пояс: GMT



Вы не можете начинать темы
Вы не можете отвечать на сообщения
Вы не можете редактировать свои сообщения
Вы не можете удалять свои сообщения
Вы не можете голосовать в опросах
Вы не можете прикреплять файлы к сообщениям
Вы не можете скачивать файлы