Важное объявление!
У Нас Все раздачи мультитрекерные, при нуле пиров в релизах, можете смело вставать на закачку!
 
Автор Сообщение

HUNTER

Стаж:
4 года 4 месяца
Сообщений:
56848

Репутация: 101

[+] [-]
Вне форума [Профиль] [ЛС]

Эмпайр-Фоллс / Empire Falls
Страна: США
Студия: HBO Films
Жанр: драма
Год выпуска: 2005
Продолжительность: 03:08:18 (01:46:02+01:22:16)
Перевод: Профессиональный (многоголосый закадровый) Amedia
Cубтитры: нет
Оригинальная аудиодорожка: нет
Режиссер: Фред Скеписи/Fred Schepisi
В ролях: Эд Харрис, Филип Сеймур Хоффман, Хелен Хант, Пол Ньюман, Робин Райт, Эйдан Куинн, Джоан Вудворд, Деннис Фарина, Уильям Фихтнер, Эстелл Парсонс
Описание: В центре повествования - жизнь и судьба Майлса Роби, владельца забегаловки. Его глазами мы видим не только городок, но целую ушедшую эпоху. Когда-то Эмпайр-Фоллс был процветающим промышленным городом; сейчас, как и во многих подобных местах, индустрия пришла в упадок, рубашки стало дешевле покупать в Китае, а лес - в Бразилии. На этом безрадостном фоне перед зрителем проходит целая галерея ярких типажей. Кроме семьи Роби, встретятся полицейские, служители культа, завсегдатаи кафе-гриль, наследница бывших хозяев городка...
Слоган: "Every small town has a big story" (У каждого маленького города своя большая история)
Доп. информация о фильме:
Фильм основан на повести Empire Falls (Пулитцеровская премия), писателя Ричарда Пола Руссо.
Эмпайр-Фоллс получил Золотой Глобус за лучший телефильм.
Пол Ньюман получил Золотой Глобус как лучший актер второго плана.
В фильме снимались 5 лауреатов премии Оскар: Пол Ньюман, Джоан Вудворд, Хелен Хант, Филип Сеймур Хофман и Эстелл Парсонс и номинант на премию: Эд Харрис.
Последняя роль Пола Ньюмана.
Композитор Джерри Голдсмит умер до того, как успел закончить музыкальное оформление фильма.
Мэттью МакКонахи очень хотел сыграть в фильма юного героя Пола Ньюмана, но получил отказ.
Доп. информация: Фильм, записан лично мной, с канала Amedia Premium HD, безо всяких пережатий, что называется, как есть.
Сэмпл: http://multi-up.com/1066212
Тип релиза: HDTV 1080i
Контейнер: TS
Видео: Advanced Video Codec; 6580 kbps; 25.000 fps; 1920 x 1080
Аудио: MPEG-1 Audio layer 2, 2 канала, 192 kbps, 48 KHz (русский)

MediaInfo

General
ID : 1 (0x1)
Complete name : D:\2005_Эмпайр-Фоллс (Empire Falls)_1080i\1-part.ts
Format : MPEG-TS
File size : 5.39 GiB
Duration : 1h 46mn
Overall bit rate mode : Variable
Overall bit rate : 7 278 Kbps
Video
ID : 69 (0x45)
Menu ID : 1 (0x1)
Format : AVC
Format/Info : Advanced Video Codec
Format profile : High@L4
Format settings, CABAC : Yes
Format settings, ReFrames : 4 frames
Codec ID : 27
Duration : 1h 46mn
Bit rate : 6 724 Kbps
Width : 1 920 pixels
Height : 1 080 pixels
Display aspect ratio : 16:9
Frame rate : 25.000 fps
Standard : Component
Color space : YUV
Chroma subsampling : 4:2:0
Bit depth : 8 bits
Scan type : MBAFF
Scan order : Top Field First
Bits/(Pixel*Frame) : 0.130
Stream size : 4.98 GiB (92%)
Color range : Limited
Color primaries : BT.709
Transfer characteristics : BT.709
Matrix coefficients : BT.709
Audio
ID : 68 (0x44)
Menu ID : 1 (0x1)
Format : MPEG Audio
Format version : Version 1
Format profile : Layer 2
Mode : Joint stereo
Mode extension : Intensity Stereo + MS Stereo
Codec ID : 3
Duration : 1h 46mn
Bit rate mode : Constant
Bit rate : 192 Kbps
Channel(s) : 2 channels
Sampling rate : 48.0 KHz
Compression mode : Lossy
Stream size : 146 MiB (3%)
Language : Russian
General
ID : 43089 (0xA851)
Complete name : D:\2005_Эмпайр-Фоллс (Empire Falls)_1080i\2-part.ts
Format : MPEG-TS
File size : 4.17 GiB
Duration : 1h 22mn
Overall bit rate mode : Variable
Overall bit rate : 7 265 Kbps
Video
ID : 69 (0x45)
Menu ID : 1 (0x1)
Format : AVC
Format/Info : Advanced Video Codec
Format profile : High@L4
Format settings, CABAC : Yes
Format settings, ReFrames : 4 frames
Codec ID : 27
Duration : 1h 22mn
Bit rate : 6 712 Kbps
Width : 1 920 pixels
Height : 1 080 pixels
Display aspect ratio : 16:9
Frame rate : 25.000 fps
Standard : Component
Color space : YUV
Chroma subsampling : 4:2:0
Bit depth : 8 bits
Scan type : MBAFF
Scan order : Top Field First
Bits/(Pixel*Frame) : 0.129
Stream size : 3.86 GiB (92%)
Color range : Limited
Color primaries : BT.709
Transfer characteristics : BT.709
Matrix coefficients : BT.709
Audio
ID : 68 (0x44)
Menu ID : 1 (0x1)
Format : MPEG Audio
Format version : Version 1
Format profile : Layer 2
Mode : Joint stereo
Mode extension : Intensity Stereo + MS Stereo
Codec ID : 3
Duration : 1h 22mn
Bit rate mode : Constant
Bit rate : 192 Kbps
Channel(s) : 2 channels
Sampling rate : 48.0 KHz
Compression mode : Lossy
Delay relative to video : -560ms
Stream size : 113 MiB (3%)
Language : Russian

Скриншоты







_________________
Показать сообщения:    

Текущее время: Сегодня 03:56

Часовой пояс: GMT



Вы не можете начинать темы
Вы не можете отвечать на сообщения
Вы не можете редактировать свои сообщения
Вы не можете удалять свои сообщения
Вы не можете голосовать в опросах
Вы не можете прикреплять файлы к сообщениям
Вы не можете скачивать файлы
Наши партнеры: интернет магазин Ивановского трикотажа textilla.ru