Важное объявление!
У Нас Все раздачи мультитрекерные, при нуле пиров в релизах, можете смело вставать на закачку!
 
Автор Сообщение

HUNTER

Стаж:
4 года 4 месяца
Сообщений:
56848

Репутация: 101

[+] [-]
Вне форума [Профиль] [ЛС]

Элизиум: Рай не на ЗемлеElysium-
Страна: США
Жанр: фантастика, боевик, триллер, драма.
Год выпуска: 2013
Продолжительность: 01:49:35-Перевод: Профессиональный (полное дублирование)
Оригинальная аудиодорожка: английский.
Субтитры: русские (Forced), русские (Full), английские (Forced), английские (Full).
Режиссер: Нил Бломкамп / Neill Blomkamp
В ролях:
Matt Damon (Max), Джоди Фостер / Jodie Foster (Delacourt), Шарлто Копли / Sharlto Copley (Kruger), Алиси Брага / Alice Braga (Frey), Диего Луна / Diego Luna (Julio), Вагнер Моура / Wagner Moura (Spider), Уильям Фихтнер / William Fichtner (John Carlyle), Брэндон Оре / Brandon Auret (Drake), Джош Блэкер / Josh Blacker (Crowe), Эмма Тремблэ / Emma Tremblay (Matilda), Хосе Пабло Кантилльо / Jose Pablo Cantillo (Sandro), Максвелл Перри Коттон / Maxwell Perry Cotton (Young Max)-Дублёры: Сергей Быстрицкий (Max), Елена Соловьева (Delacourt), Владислав Копп (Kruger), Антон Савенков (Julio), Вадим Медведев (Spider), Сергей Чихачев (Crowe), Даниил Эльдаров (Sandro), Максим Чихачев (Young Max), Юрий Деркач (President Patel), Александр Носков (Manuel), Никита Прозоровский-Описание: В 2154 году существует два класса людей: очень богатые, живущие на чистой, созданной руками человека, космической станции под названием Элизиум и остальные, живущие на перенаселённой разрушенной Земле. Безжалостный правительственный чиновник, амбициозная министр обороны Делакур, не остановится ни перед чем для применения анти-иммиграционных законов и сохранения роскошного образа жизни граждан Элизиума. Когда неудачника Макса загоняют в угол, он соглашается взять на себя сложную миссию, которая в случае успеха не только спасёт ему жизнь, но и может привести к равенству этих поляризованных миров.-- -
MPAA: R - Лицам до 17 лет обязательно присутствие взрослого-Качество: BDRip720p от CHD
Контейнер: MKV
Видео: AVC, 1280x536 (2.40:1), 5033 kbps, 23,976 fps, 0,306 bpp
Аудио №1: русский / AC3 / 5.1 / 48 kHz / 640 kbps / Дублированный
Аудио №2: английский / DTS / 5.1 / 48 kHz / 1510 kbps / 24 bit / Eng
Субтитры: русские (Forced), русские (Full), английские (Forced), английские (Full).
Навигация по главам: есть-

Media Info

x264

x264 [info]: frame I:1987 Avg QP:13.58 size:108656
x264 [info]: frame P:53573 Avg QP:15.91 size: 41303
x264 [info]: frame B:102096 Avg QP:18.19 size: 16719
General
Unique ID : 232921439534626344507804773134106515572 (0xAF3B099A2FC9378BA97FBEE3DB3E5874)
Complete name : D:\Elysium.2013.BluRay.720p.mkv
Format : Matroska
Format version : Version 4 / Version 2
File size : 5.50 GiB
Duration : 1h 49mn
Overall bit rate : 7 184 Kbps
Movie name : Elysium.2013.BluRay.720p.DTS.x264-CHD
Encoded date : UTC 2013-11-27 14:49:37
Writing application : mkvmerge v6.1.0 ('Old Devil') built on Mar 4 2013 09:10:42
Writing library : libebml v1.3.0 + libmatroska v1.4.0
Attachment : Yes
Video
ID : 1
Format : AVC
Format/Info : Advanced Video Codec
Format profile : High@L4.1
Format settings, CABAC : Yes
Format settings, ReFrames : 11 frames
Codec ID : V_MPEG4/ISO/AVC
Duration : 1h 49mn
Bit rate : 5 033 Kbps
Width : 1 280 pixels
Height : 536 pixels
Display aspect ratio : 2.40:1
Frame rate mode : Constant
Frame rate : 23.976 fps
Color space : YUV
Chroma subsampling : 4:2:0
Bit depth : 8 bits
Scan type : Progressive
Bits/(Pixel*Frame) : 0.306
Stream size : 3.74 GiB (68%)
Title : Elysium
Writing library : x264 core 138 r2356 a1d3d17
Encoding settings : cabac=1 / ref=11 / deblock=1:-3:-3 / analyse=0x3:0x113 / me=umh / subme=10 / psy=1 / psy_rd=1.00:0.05 / mixed_ref=1 / me_range=32 / chroma_me=1 / trellis=2 / 8x8dct=1 / cqm=0 / deadzone=21,11 / fast_pskip=0 / chroma_qp_offset=-2 / threads=18 / lookahead_threads=1 / sliced_threads=0 / nr=0 / decimate=1 / interlaced=0 / bluray_compat=0 / constrained_intra=0 / bframes=4 / b_pyramid=2 / b_adapt=2 / b_bias=0 / direct=3 / weightb=1 / open_gop=0 / weightp=2 / keyint=250 / keyint_min=23 / scenecut=40 / intra_refresh=0 / rc=2pass / mbtree=0 / bitrate=5033 / ratetol=1.0 / qcomp=0.70 / qpmin=0 / qpmax=69 / qpstep=4 / cplxblur=20.0 / qblur=0.5 / ip_ratio=1.40 / pb_ratio=1.30 / aq=2:1.00
Language : English
Default : Yes
Forced : No
Audio #1
ID : 2
Format : AC-3
Format/Info : Audio Coding 3
Mode extension : CM (complete main)
Format settings, Endianness : Big
Codec ID : A_AC3
Duration : 1h 49mn
Bit rate mode : Constant
Bit rate : 640 Kbps
Channel count : 6 channels
Channel positions : Front: L C R, Side: L R, LFE
Sampling rate : 48.0 KHz
Bit depth : 16 bits
Compression mode : Lossy
Stream size : 502 MiB (9%)
Title : Дублированный
Language : Russian
Default : Yes
Forced : No
Audio #2
ID : 3
Format : DTS
Format/Info : Digital Theater Systems
Mode : 16
Format settings, Endianness : Big
Codec ID : A_DTS
Duration : 1h 49mn
Bit rate mode : Constant
Bit rate : 1 509 Kbps
Channel count : 6 channels
Channel positions : Front: L C R, Side: L R, LFE
Sampling rate : 48.0 KHz
Bit depth : 24 bits
Compression mode : Lossy
Stream size : 1.16 GiB (21%)
Title : English DTS 5.1 1509Kbps
Language : English
Default : No
Forced : No
Text #1
ID : 4
Format : UTF-8
Codec ID : S_TEXT/UTF8
Codec ID/Info : UTF-8 Plain Text
Title : Forced
Language : Russian
Default : Yes
Forced : No
Text #2
ID : 5
Format : UTF-8
Codec ID : S_TEXT/UTF8
Codec ID/Info : UTF-8 Plain Text
Title : Full
Language : Russian
Default : No
Forced : No
Text #3
ID : 6
Format : UTF-8
Codec ID : S_TEXT/UTF8
Codec ID/Info : UTF-8 Plain Text
Title : Forced
Language : English
Default : No
Forced : No
Text #4
ID : 7
Format : UTF-8
Codec ID : S_TEXT/UTF8
Codec ID/Info : UTF-8 Plain Text
Title : Full
Language : English
Default : No
Forced : No
Menu
00:00:00.000 : en:00:00:00.000
00:07:02.589 : en:00:07:02.589
00:11:59.344 : en:00:11:59.344
00:19:27.625 : en:00:19:27.625
00:25:34.825 : en:00:25:34.825
00:30:02.342 : en:00:30:02.342
00:39:22.068 : en:00:39:22.068
00:57:43.960 : en:00:57:43.960
01:00:59.197 : en:01:00:59.197
01:04:09.637 : en:01:04:09.637
01:07:22.664 : en:01:07:22.664
01:10:34.147 : en:01:10:34.147
01:16:59.865 : en:01:16:59.865
01:22:50.132 : en:01:22:50.132
01:30:19.914 : en:01:30:19.914
01:35:44.530 : en:01:35:44.530

Скриншоты



-Торрент перезалит, исправлены субтитры.-

_________________
Показать сообщения:    

Текущее время: Сегодня 03:16

Часовой пояс: GMT



Вы не можете начинать темы
Вы не можете отвечать на сообщения
Вы не можете редактировать свои сообщения
Вы не можете удалять свои сообщения
Вы не можете голосовать в опросах
Вы не можете прикреплять файлы к сообщениям
Вы не можете скачивать файлы
Наши партнеры: интернет магазин Ивановского трикотажа textilla.ru