Важное объявление!
У Нас Все раздачи мультитрекерные, при нуле пиров в релизах, можете смело вставать на закачку!
 
Автор Сообщение

HUNTER

Стаж:
4 года 4 месяца
Сообщений:
56829

Репутация: 101

[+] [-]
Вне форума [Профиль] [ЛС]

.: Элизиум: Рай не на Земле / Elysium :.
Страна: США
Студия: TriStar Pictures
Жанр: Фантастика / боевик
Год выпуска: 2013
Продолжительность: 1:49:36
Перевод: Профессиональный (дублированный)
Оригинальная аудиодорожка: Английская
Cубтитры: Русские (Форсированные, полные), английские
Режиссер: Нил Бломкамп / Neill Blomkamp
В ролях: Мэтт Дэймон, Шарлто Копли, Джоди Фостер, Алиси Брага,Уильям Фихтнер и др.
Описание: В 2154 году существует два класса людей: очень богатые, живущие на чистой, созданной руками человека, космической станции под названием Элизиум и остальные, живущие на перенаселённой разрушенной Земле. Безжалостный правительственный чиновник, амбициозная министр обороны Делакур, не остановится ни перед чем для применения анти-иммиграционных законов и сохранения роскошного образа жизни граждан Элизиума. Когда неудачника Макса загоняют в угол, он соглашается взять на себя сложную миссию, которая в случае успеха не только спасёт ему жизнь, но и может привести к равенству этих поляризованных миров.
Сэмпл: SendFile.su
Тип релиза: BDRip 1080p
Контейнер: MKV
Видео: BDRip 1080p / 1920x804 / 23.976 fps / 14147 kbps
Аудио 1: Дубляж / AC3 / 5.1 ch / 48 KHz / 640 kbps
Аудио 2: Оригинальная / DTS / 5.1 ch / 48 KHz / 1510 kbps
Субтитры 1: Форсированные / (SRT)
Субтитры 2: BluRay / (SRT)
Субтитры 3: Оригинальные (английские) / (SRT)

MediaInfo

General
Format : Matroska
Format version : Version 2
File size : 12.5 GiB
Duration : 1h 49mn
Overall bit rate : 16.3 Mbps
Writing application : mkvmerge v3.4.0 ('Rapunzel') сборка от Jun 2 2010 23:27:56
Writing library : libebml v0.8.1 + libmatroska v0.9.0
Video
ID : 1
Format : AVC
Format/Info : Advanced Video Codec
Format profile : High@L4.1
Format settings, CABAC : Yes
Format settings, ReFrames : 5 frames
Codec ID : V_MPEG4/ISO/AVC
Duration : 1h 49mn
Bit rate : 13.8 Mbps
Width : 1 920 pixels
Height : 804 pixels
Display aspect ratio : 2.40:1
Frame rate : 23.976 fps
Color space : YUV
Chroma subsampling : 4:2:0
Bit depth : 8 bits
Scan type : Progressive
Bits/(Pixel*Frame) : 0.374
Stream size : 10.6 GiB (85%)
Title : BDRip 1080p by nabby_3
Writing library : x264 core 133 r2334 a3ac64b
Encoding settings : cabac=1 / ref=5 / deblock=1:-3:-3 / analyse=0x3:0x133 / me=tesa / subme=11 / psy=1 / psy_rd=1.03:0.03 / mixed_ref=1 / me_range=32 / chroma_me=1 / trellis=2 / 8x8dct=1 / cqm=0 / deadzone=21,11 / fast_pskip=0 / chroma_qp_offset=-3 / threads=9 / lookahead_threads=2 / sliced_threads=0 / nr=0 / decimate=1 / interlaced=0 / bluray_compat=0 / constrained_intra=0 / bframes=11 / b_pyramid=2 / b_adapt=2 / b_bias=0 / direct=3 / weightb=1 / open_gop=0 / weightp=2 / keyint=240 / keyint_min=22 / scenecut=40 / intra_refresh=0 / rc=crf / mbtree=0 / crf=16.5 / qcomp=0.75 / qpmin=0 / qpmax=69 / qpstep=4 / ip_ratio=1.40 / pb_ratio=1.30 / aq=2:0.90
Language : English
Default : No
Forced : No
Audio #1
ID : 2
Format : AC-3
Format/Info : Audio Coding 3
Mode extension : CM (complete main)
Format settings, Endianness : Big
Codec ID : A_AC3
Duration : 1h 49mn
Bit rate mode : Constant
Bit rate : 640 Kbps
Channel(s) : 6 channels
Channel positions : Front: L C R, Side: L R, LFE
Sampling rate : 48.0 KHz
Bit depth : 16 bits
Compression mode : Lossy
Stream size : 502 MiB (4%)
Title : Dub / AC3 / 5.1 ch / 640 kbps
Language : Russian
Default : Yes
Forced : No
Audio #2
ID : 3
Format : DTS
Format/Info : Digital Theater Systems
Codec ID : A_DTS
Duration : 1h 49mn
Bit rate mode : Constant
Bit rate : 1 510 Kbps
Channel(s) : 6 channels
Channel positions : Front: L C R, Side: L R, LFE
Sampling rate : 48.0 KHz
Bit depth : 24 bits
Compression mode : Lossy
Stream size : 1.16 GiB (9%)
Title : Original / DTS / 5.1 ch / 1510 kbps
Language : English
Default : No
Forced : No
Text #1
ID : 4
Format : UTF-8
Codec ID : S_TEXT/UTF8
Codec ID/Info : UTF-8 Plain Text
Title : Forced
Language : Russian
Default : Yes
Forced : No
Text #2
ID : 5
Format : UTF-8
Codec ID : S_TEXT/UTF8
Codec ID/Info : UTF-8 Plain Text
Title : Russian
Language : Russian
Default : No
Forced : No
Text #3
ID : 6
Format : UTF-8
Codec ID : S_TEXT/UTF8
Codec ID/Info : UTF-8 Plain Text
Title : English
Language : English
Default : No
Forced : No
Menu
00:00:00.000 : :
00:07:03.000 : :
00:11:59.000 : :
00:19:28.000 : :
00:25:35.000 : :
00:30:02.000 : :
00:39:22.000 : :
00:57:44.000 : :
01:00:59.000 : :
01:04:10.000 : :
01:07:23.000 : :
01:10:34.000 : :
01:17:00.000 : :
01:22:50.000 : :
01:30:20.000 : :
01:35:45.000 : :

x264 log

x264 [info]: frame I:1152 Avg QP:14.04 size:229971
x264 [info]: frame P:42218 Avg QP:15.68 size:123683
x264 [info]: frame B:114286 Avg QP:17.89 size: 53738
x264 [info]: consecutive B-frames: 5.4% 6.2% 10.9% 30.4% 13.7% 21.1% 5.0% 5.1% 1.0% 0.3% 0.5% 0.6%
x264 [info]: kb/s:14147.01

Сравнения

--------
nabby_3
--------
-------
Source
-------

_________________
Показать сообщения:    

Текущее время: Сегодня 08:59

Часовой пояс: GMT



Вы не можете начинать темы
Вы не можете отвечать на сообщения
Вы не можете редактировать свои сообщения
Вы не можете удалять свои сообщения
Вы не можете голосовать в опросах
Вы не можете прикреплять файлы к сообщениям
Вы не можете скачивать файлы