Важное объявление!
У Нас Все раздачи мультитрекерные, при нуле пиров в релизах, можете смело вставать на закачку!
 
Автор Сообщение

HUNTER

Стаж:
4 года 4 месяца
Сообщений:
56808

Репутация: 101

[+] [-]
Вне форума [Профиль] [ЛС]

Элиас и морское сокровище
Elias og jakten pa havets gull
Страна: Норвегия
Жанр: полнометражный мультфильм
Продолжительность: 01:11:37
Год выпуска: 2010-Перевод: Профессиональный (Многоголосый закадровый) ~ ВГТРК
Русские субтитры: нет
Режиссёр: Лисе Осволл / Lise I. Osvoll-Описание: Маленький спасательный катер Элиас и его друзья, команда Уютной бухты, готовятся к началу зимнего сезона ежегодной рыбной ловли. Но в этот раз большой улов им не светит. Оказывается, огромные промышленные траулеры выловили всю рыбу в океане, и для обычных маленьких рыбацких лодочек настали тяжелые времена. Элиас хочет помочь своим друзьям.-Релиз: | | -• Спасибо xfiles за DVB исходник.-Качество: SATRip
Формат: AVI
Видео: 704x416 (1.69:1), 25,000 fps, XviD 65 ~1 319 kbps avg, 0.18 bit/pixel
Аудио: 48.0 kHz, MPEG Layer 3, 2/0 (L,R) ch, ~128 kbps
Субтитры: отсутствуют

MI


Общее
Полное имя : E:\incarcare\rip gata\Elias.og.jakten.pa.havets.gull.2010.DVBRip.avi
Формат : AVI
Формат/Информация : Audio Video Interleave
Размер файла : 746 Мбайт
Продолжительность : 1 ч. 11 м.
Общий поток : 1457 Кбит/сек
Программа кодирования : VirtualDubMod 1.5.10.2 (build 2540/release)
Библиотека кодирования : VirtualDubMod build 2540/release
Видео
Идентификатор : 0
Формат : MPEG-4 Visual
Профиль формата : Advanced Simple@L5
Параметр BVOP формата : 1
Параметр QPel формата : Нет
Параметр GMC формата : Без точки перехода
Параметр матрицы формата : Выборочная
Идентификатор кодека : XVID
Идентификатор кодека/Подсказка : XviD
Продолжительность : 1 ч. 11 м.
Битрейт : 1319 Кбит/сек
Ширина : 704 пикселя
Высота : 416 пикселей
Соотношение сторон : 5:3
Частота кадров : 25,000 кадров/сек
Цветовое пространство : YUV
Субдискретизация насыщенности : 4:2:0
Битовая глубина : 8 бит
Тип развёртки : Прогрессивная
Метод сжатия : С потерями
Бит/(Пиксели*Кадры) : 0.180
Размер потока : 676 Мбайт (91%)
Библиотека кодирования : XviD 65
Аудио
Идентификатор : 1
Формат : MPEG Audio
Версия формата : Version 1
Профиль формата : Layer 3
Идентификатор кодека : 55
Идентификатор кодека/Подсказка : MP3
Продолжительность : 1 ч. 11 м.
Вид битрейта : Постоянный
Битрейт : 128 Кбит/сек
Каналы : 2 канала
Частота : 48,0 КГц
Метод сжатия : С потерями
Размер потока : 65,6 Мбайт (9%)
Выравнивание : Соединение по промежуткам
Продолжительность промежутка : 40 мс. (1,00 видеокадр)
Время предзагрузки промежутка : 504 мс.

Скриншоты


_________________
Показать сообщения:    

Текущее время: Сегодня 11:04

Часовой пояс: GMT



Вы не можете начинать темы
Вы не можете отвечать на сообщения
Вы не можете редактировать свои сообщения
Вы не можете удалять свои сообщения
Вы не можете голосовать в опросах
Вы не можете прикреплять файлы к сообщениям
Вы не можете скачивать файлы