Важное объявление!
У Нас Все раздачи мультитрекерные, при нуле пиров в релизах, можете смело вставать на закачку!
 
Автор Сообщение

HUNTER

Стаж:
4 года 4 месяца
Сообщений:
56829

Репутация: 101

[+] [-]
Вне форума [Профиль] [ЛС]

Элементарно / Elementary
-Сезон: 2, Серии: 1-6 из 24-Год выхода: 2013
Страна: С.Ш.А.
Жанр: драма, криминал, детектив
Продолжительность: ~00:43:00
Озвучивание: Профессиональное (многоголосое) [NewStudio]
Субтитры: нет
Режиссер: Майкл Куэста
В ролях: Джонни Ли Миллер, Люси Лью, Эйдан Куинн, Билл Хек, Уорд Хортон, Мэнни Перез и другие
-Описание:-Британский сыщик Шерлок Холмс — бывший наркоман, который был отправлен в Нью-Йорк на лечение в реабилитационный центр, а по завершении лечения остался в Бруклине как консультант Нью-Йоркской полиции. В расследованиях ему помогает его компаньон-наблюдатель доктор Джоан Ватсон, нанятая его отцом.-Качество: WEB-DL
HD стандарт: 1080p
Видео кодек: AVC
Аудио кодек: AC3
Video: 1920x1080 MPEG4 Video (H264) 23.976 fps ~5000 kbps
Audio Russian: 48 kHz, AC3, Front: L C R, Side: L R, LFE 6 ch, 384 KbpsDolby AC3 48000Hz stereo
Audio English: 48 kHz, AA3, Front: L C R, Side: L R, LFE 6 ch, 384 KbpsDolby AC3 48000Hz stereo
-

Название эпизодов:


  • 01 - Step Nine /Девятая ступень
  • 02 - Solve for X / Решение задачи
  • 03 - We Are Everyone / Все мы
  • 04 - Poison Pen / Ядовитое перо
  • 05 - Ancient History / Древняя история
  • 06 - An Unnatural Arrangement / Неестественный Композиция
-

Над релизом работали:


Релиз группы:
-

MediaInfo:

General
Unique ID : 225934791860443506256841620708275017074 (0xA9F97546D8E278809685B47D5F985572)
Complete name: D:\Downloads\Элементарно Сезон 2 WEBDL 1080p [NewStudio.TV]\Elementary.S02E01.WEBDL.1080p.NewStudio.TV.mkv
Format : Matroska
Format version : Version 4 / Version 2
File size : 1.72 GiB
Duration : 43mn 18s
Overall bit rate : 5 683 Kbps
Encoded date : UTC 2013-09-28 17:42:19
Writing application : mkvmerge v6.4.1 ('Omega Point') built on Sep 16 2013 22:05:10
Writing library : libebml v1.3.0 + libmatroska v1.4.1
Video
ID : 1
Format : AVC
Format/Info : Advanced Video Codec
Format profile : [url=mailto:High@L4.0]High@L4.0[/url]
Format settings, CABAC : Yes
Format settings, ReFrames : 4 frames
Codec ID : V_MPEG4/ISO/AVC
Duration : 43mn 18s
Bit rate : 4 802 Kbps
Width : 1 920 pixels
Height : 1 080 pixels
Display aspect ratio : 16:9
Frame rate mode : Constant
Frame rate : 23.976 fps
Color space : YUV
Chroma subsampling : 4:2:0
Bit depth : 8 bits
Scan type : Progressive
Bits/(Pixel*Frame) : 0.097
Stream size : 1.45 GiB (84%)
Language : English
Default : Yes
Forced : No
Color primaries : BT.709
Transfer characteristics : BT.709
Matrix coefficients : BT.709
Audio #1
ID : 2
Format : AC-3
Format/Info : Audio Coding 3
Mode extension : CM (complete main)
Format settings, Endianness : Big
Codec ID : A_AC3
Duration : 43mn 18s
Bit rate mode : Constant
Bit rate : 384 Kbps
Channel count : 6 channels
Channel positions : Front: L C R, Side: L R, LFE
Sampling rate : 48.0 KHz
Bit depth : 16 bits
Compression mode : Lossy
Stream size : 119 MiB (7%)
Language : Russian
Default : Yes
Forced : No
Audio #2
ID : 3
Format : AC-3
Format/Info : Audio Coding 3
Mode extension : CM (complete main)
Format settings, Endianness : Big
Codec ID : A_AC3
Duration : 43mn 18s
Bit rate mode : Constant
Bit rate : 384 Kbps
Channel count : 6 channels
Channel positions : Front: L C R, Side: L R, LFE
Sampling rate : 48.0 KHz
Bit depth : 16 bits
Compression mode : Lossy
Stream size : 119 MiB (7%)
Language : English
Default : No
Forced : No
-

Скриншоты:


-

Раздача ведётся путём добавления новых серий:

Внимание! Раздача ведётся путём добавления новых серий; при каждом добавлении создаётся новый торрент. Чтобы начать докачку новой серии, пользователям необходимо сделать следующее:
  • Остановить скачивание.
  • Удалить старый торрент у себя из клиента (старые серии удалять не надо).
  • Скачать новый торрент и запустить его у себя в клиенте вместо старого, при этом указать клиенту путь в старую папку куда и должно происходить скачивание новых серий.
Ваш клиент при этом должен произвести хеширование (проверку) старой папки (если не производит сам - помогите ему сделать это), и будет докачивать только те серии которых у вас ещё нет. Старые серии при этом не удаляются, а продолжают раздаваться!-Eсли вы уже удалили старые серии, то предотвратить повторную закачку старых серий можно, отжав галочку в соответсвующих местах при запуске нового торрента. По возможности, желательно не удалять старые серии как можно дольше чтобы релизёр не столько продолжал раздавать старые серии, а смог сконцентрироваться на новых.
-

_________________
Показать сообщения:    

Текущее время: Сегодня 16:16

Часовой пояс: GMT



Вы не можете начинать темы
Вы не можете отвечать на сообщения
Вы не можете редактировать свои сообщения
Вы не можете удалять свои сообщения
Вы не можете голосовать в опросах
Вы не можете прикреплять файлы к сообщениям
Вы не можете скачивать файлы