Важное объявление!
У Нас Все раздачи мультитрекерные, при нуле пиров в релизах, можете смело вставать на закачку!
 
Автор Сообщение

HUNTER

Стаж:
4 года 4 месяца
Сообщений:
56765

Репутация: 101

[+] [-]
Вне форума [Профиль] [ЛС]

-Элвин и бурундуки: Грандиозное бурундуключение / Alvin And The Chipmunks The Road Chip
«Fast & furry-ous»-
-Страна: США
Жанр: Мультфильм, Комедия, Приключения, Семейный
Год выпуска: 2015
Продолжительность: 01:32:00-Перевод: Профессиональный (дублированный) iTunes-Cубтитры: Русские, Английские
Оригинальная аудиодорожка: Английская-Режиссер: Уолт Бекер / Walt Becker-В ролях: Джейсон Ли, Джастин Лонг, Мэттью Грей Гублер ,Джесси МакКартни ,Кимберли Уильямс-Пэйсли, Джош Грин, Тони Хейл, Белла Торн ,Эдди Стиплз, Кристина Эпплгейт-Описание: Когда Бурундуки видят, что Дэйв берет с собой коробочку с кольцом в поездку в Майами, они отчаянно пытаются помешать ему сделать предложение его девушке — из опасения, что мачеха и сводный брат внесут перемены в их семейную идиллию. Но после того, как их помещают в черный список за хулиганское поведение в самолете, Элвин, Саймон, Теодор и их будущий брат Майлз отправляются в самое важное путешествие в их жизни через всю страну, чтобы успеть помешать помолвке.- - -Тип релиза: BDRip 1080p
Контейнер: MKV-Видео: MPEG-4 AVC, 1920x1040 (1.85:1), 23.976 fps, ~13200 kbps avg, 0.275 bit/pixel
Аудио 1: 48 kHz, AC3 Dolby Digital, 3/2 (L,C,R,l,r) + LFE ch, ~384 kbps avg
Аудио 2: 48 kHz, DTS, 3/2 (L,C,R,l,r) + LFE ch, ~1509 kbps avg-

MediaInfo

Complete name : D:\РАЗДАЧИ\Alvin And The Chipmunks The Road Chip (2015) BDRip1080p.mkv
Format : Matroska
Format version : Version 2
File size : 9.89 GiB
Duration : 1h 32mn
Overall bit rate : 15.4 Mbps
Movie name : Alvin And The Chipmunks The Road Chip (2015) BDRip1080p
Encoded date : UTC 2016-03-05 16:20:55
Writing application : mkvmerge v3.0.0 ('Hang up your Hang-Ups') built on Dec 12 2009 15:20:35
Writing library : libebml v0.7.9 + libmatroska v0.8.1
Cover : Yes
Attachments : cover.jpg
Video
ID : 1
Format : AVC
Format/Info : Advanced Video Codec
Format profile : High@L4.1
Format settings, CABAC : Yes
Format settings, ReFrames : 4 frames
Codec ID : V_MPEG4/ISO/AVC
Duration : 1h 32mn
Bit rate : 13.2 Mbps
Width : 1 920 pixels
Height : 1 040 pixels
Display aspect ratio : 1.85:1
Frame rate mode : Constant
Frame rate : 23.976 (24000/1001) fps
Color space : YUV
Chroma subsampling : 4:2:0
Bit depth : 8 bits
Scan type : Progressive
Bits/(Pixel*Frame) : 0.275
Stream size : 8.47 GiB (86%)
Writing library : x264 core 146 r2538 121396c
Encoding settings : cabac=1 / ref=4 / deblock=1:-3:-3 / analyse=0x3:0x133 / me=umh / subme=11 / psy=1 / psy_rd=1.00:0.00 / mixed_ref=1 / me_range=32 / chroma_me=1 / trellis=2 / 8x8dct=1 / cqm=0 / deadzone=21,11 / fast_pskip=0 / chroma_qp_offset=-2 / threads=48 / lookahead_threads=8 / sliced_threads=0 / nr=0 / decimate=0 / interlaced=0 / bluray_compat=0 / constrained_intra=0 / bframes=12 / b_pyramid=2 / b_adapt=2 / b_bias=0 / direct=3 / weightb=1 / open_gop=0 / weightp=2 / keyint=240 / keyint_min=23 / scenecut=40 / intra_refresh=0 / rc_lookahead=150 / rc=crf / mbtree=0 / crf=16.0 / qcomp=0.60 / qpmin=0 / qpmax=69 / qpstep=4 / vbv_maxrate=62500 / vbv_bufsize=78125 / crf_max=0.0 / nal_hrd=none / filler=0 / ip_ratio=1.40 / pb_ratio=1.30 / aq=1:0.80
Default : No
Forced : No
Audio #1
ID : 2
Format : AC-3
Format/Info : Audio Coding 3
Mode extension : CM (complete main)
Format settings, Endianness : Big
Codec ID : A_AC3
Duration : 1h 32mn
Bit rate mode : Constant
Bit rate : 384 Kbps
Channel(s) : 6 channels
Channel positions : Front: L C R, Side: L R, LFE
Sampling rate : 48.0 KHz
Frame rate : 31.250 fps (1536 spf)
Compression mode : Lossy
Stream size : 253 MiB (2%)
Title : iTunes
Language : Russian
Default : Yes
Forced : No
Audio #2
ID : 3
Format : DTS
Format/Info : Digital Theater Systems
Format profile : ES Matrix / Core
Mode : 16
Format settings, Endianness : Big
Codec ID : A_DTS
Duration : 1h 32mn
Bit rate mode : Constant
Bit rate : 1 509 Kbps
Channel(s) : 7 channels / 6 channels
Channel positions : Front: L C R, Side: L R, Back: C, LFE / Front: L C R, Side: L R, LFE
Sampling rate : 48.0 KHz
Frame rate : 93.750 fps (512 spf)
Bit depth : 24 bits
Compression mode : Lossy
Stream size : 993 MiB (10%)
Title : Original
Language : English
Default : No
Forced : No
Text #1
ID : 4
Format : UTF-8
Codec ID : S_TEXT/UTF8
Codec ID/Info : UTF-8 Plain Text
Title : Russian (Forced)
Language : Russian
Default : Yes
Forced : No
Text #2
ID : 5
Format : UTF-8
Codec ID : S_TEXT/UTF8
Codec ID/Info : UTF-8 Plain Text
Title : Russian (Full)
Language : Russian
Default : No
Forced : No
Text #3
ID : 6
Format : UTF-8
Codec ID : S_TEXT/UTF8
Codec ID/Info : UTF-8 Plain Text
Title : English
Language : English
Default : No
Forced : No
Menu
00:00:00.000 : en:Chapter 1
00:05:35.210 : en:Chapter 2
00:08:09.322 : en:Chapter 3
00:12:31.042 : en:Chapter 4
00:16:40.333 : en:Chapter 5
00:20:11.085 : en:Chapter 6
00:22:45.447 : en:Chapter 7
00:24:56.870 : en:Chapter 8
00:27:57.217 : en:Chapter 9
00:30:30.829 : en:Chapter 10
00:35:27.751 : en:Chapter 11
00:39:55.059 : en:Chapter 12
00:42:55.531 : en:Chapter 13
00:45:58.506 : en:Chapter 14
00:49:43.480 : en:Chapter 15
00:55:16.563 : en:Chapter 16
00:58:13.490 : en:Chapter 17
01:01:46.244 : en:Chapter 18
01:04:39.000 : en:Chapter 19
01:09:26.662 : en:Chapter 20
01:13:25.860 : en:Chapter 21
01:16:30.878 : en:Chapter 22
01:21:39.811 : en:Chapter 23
01:25:03.932 : en:Chapter 24

Скриншоты


_________________
Показать сообщения:    

Текущее время: Сегодня 05:51

Часовой пояс: GMT



Вы не можете начинать темы
Вы не можете отвечать на сообщения
Вы не можете редактировать свои сообщения
Вы не можете удалять свои сообщения
Вы не можете голосовать в опросах
Вы не можете прикреплять файлы к сообщениям
Вы не можете скачивать файлы