Важное объявление!
У Нас Все раздачи мультитрекерные, при нуле пиров в релизах, можете смело вставать на закачку!
 
Автор Сообщение

HUNTER

Стаж:
4 года 4 месяца
Сообщений:
56733

Репутация: 101

[+] [-]
Вне форума [Профиль] [ЛС]

Эксперимент с ужасом / Experiment in Terror«CHALLENGING! THE FASTEST TWO HOURS THE SCREEN HAS EVER SEEN! SHOCKING! IT PLUNGES YOU INTO A NEW DIMENSION OF FEAR! IMPORTANT! IT RATES WITH THE GREATEST SUSPENSE FILMS OF OUR TIME!»-
Страна: США
Жанр: триллер, криминал, детектив
Год выпуска: 1962
Продолжительность: 02:03:21-Перевод №1: Профессиональный (многоголосый закадровый) - Первый канал
Перевод №2: Авторский (одноголосый закадровый) - В. Сонькин
Оригинальная аудиодорожка №1: English
Оригинальная аудиодорожка №2: English - Isolated Score by Henry Mancini
Cубтитры: English
Навигация по главам: Присутствует-Режиссер: Блейк Эдвардс / Blake Edwards
В ролях: Гленн Форд, Ли Ремик, Стефани Пауэрс, Рой Пул, Нед Глэсс, Анита Лу, Патриция Хьюстон, Гилберт Грин, Клифтон Джеймс, Аль Авалон-Описание: Молодая работница банка Келли поздно возвращается домой. В гараже на неё нападает неизвестный и долго говорит с ней, держа сзади за шею. Он приказывает ей украсть из банка 100 000 долларов. Если она откажется, то её сестру ждет мучительная смерть. Преступник знает абсолютно всё о жизни героини Ли Ремик: где она живет, где работает, где учится её сестра и т. д. В отчаянии Келли обращается в ФБР, но преступник сразу же узнает об этом и грозится убить её сестру…-imdb.com: 7.30 (2101)
kinopoisk.ru: 6.525 (63)
Download sample-Качество видео: BDRip 720p | исх. 1080p Blu-ray AVC DTS-HD MA 5.1
Формат видео: MKV-Видео: AVC, 1280x694 (16:9), 23.976 fps, 7 767 Kbps (0.365 bit/pixel)
Аудио №1: 48 kHz, AC3, 2/0 (L,R) ch, ~192.00 kbps avg | Профессиональный (многоголосый закадровый) - Первый канал
Аудио №2: 48 kHz, AC3, 2/0 (L,R) ch, ~192.00 kbps avg | Авторский (одноголосый закадровый) - В. Сонькин
Аудио №3: 48 kHz/24-bit, DTS, 3/2 (L,C,R,l,r) + LFE ch, ~1509.00 kbps avg | English
Аудио №4: 48 kHz/24-bit, DTS, 2/0 (L,R) ch, ~1509.00 kbps avg | English - Isolated Score by Henry Mancini-

Дополнительно

Сохранены оригинальные чаптеры как на Blu-ray.
За ремукс спасибо Diablo
Рип от EbP

MediaInfo

General
Unique ID : 250397938956178504929277416313019951993 (0xBC60E38CA5AB5DEAADEB55484757EB79)
Complete name : D:\Фильмы\Experiment.in.Terror.1962.720p.BluRay.2xRus.2xEng.HDCLUB.mkv
Format : Matroska
Format version : Version 2
File size : 9.82 GiB
Duration : 2h 3mn
Overall bit rate : 11.4 Mbps
Movie name : Experiment in Terror (1962) - Release for HDCLUB
Encoded date : UTC 2013-11-10 07:17:28
Writing application : mkvmerge v5.7.0 ('The Whirlwind') built on Jul 8 2012 20:08:51
Writing library : libebml v1.2.3 + libmatroska v1.3.0
Video
ID : 1
Format : AVC
Format/Info : Advanced Video Codec
Format profile : High@L4.1
Format settings, CABAC : Yes
Format settings, ReFrames : 9 frames
Codec ID : V_MPEG4/ISO/AVC
Duration : 2h 3mn
Bit rate : 7 768 Kbps
Width : 1 280 pixels
Height : 694 pixels
Display aspect ratio : 1.85:1
Frame rate mode : Constant
Frame rate : 23.976 fps
Color space : YUV
Chroma subsampling : 4:2:0
Bit depth : 8 bits
Scan type : Progressive
Bits/(Pixel*Frame) : 0.365
Stream size : 6.69 GiB (68%)
Writing library : x264 core 133 r2334+704+50 a7549b7 tMod [8-bit@all X86_64]
Encoding settings : cabac=1 / ref=9 / deblock=1:-3:-3 / analyse=0x3:0x113 / me=umh / subme=9 / psy=1 / fade_compensate=0.00 / psy_rd=1.10:0.00 / mixed_ref=1 / me_range=16 / chroma_me=1 / trellis=2 / 8x8dct=1 / cqm=0 / deadzone=21,11 / fast_pskip=0 / chroma_qp_offset=-2 / threads=12 / lookahead_threads=3 / sliced_threads=0 / nr=0 / decimate=0 / interlaced=0 / bluray_compat=0 / constrained_intra=0 / fgo=0 / bframes=12 / b_pyramid=2 / b_adapt=2 / b_bias=0 / direct=3 / weightb=1 / open_gop=0 / weightp=2 / keyint=250 / keyint_min=23 / scenecut=40 / intra_refresh=0 / rc=crf / mbtree=0 / crf=19.5000 / qcomp=0.75 / qpmin=0 / qpmax=69 / qpstep=4 / ip_ratio=1.28 / pb_ratio=1.22 / aq=1:0.78 / aq-sensitivity=10.00 / aq-factor=1.00:1.00:1.00 / aq2=0 / aq3=0
Language : English
Default : Yes
Forced : No
Matrix coefficients : BT.709
Audio #1
ID : 2
Format : AC-3
Format/Info : Audio Coding 3
Mode extension : CM (complete main)
Format settings, Endianness : Big
Codec ID : A_AC3
Duration : 2h 3mn
Bit rate mode : Constant
Bit rate : 192 Kbps
Channel count : 2 channels
Channel positions : Front: L R
Sampling rate : 48.0 KHz
Bit depth : 16 bits
Compression mode : Lossy
Stream size : 169 MiB (2%)
Title : |Многоголосый закадровый, Первый канал
Language : Russian
Default : Yes
Forced : No
Audio #2
ID : 3
Format : AC-3
Format/Info : Audio Coding 3
Mode extension : CM (complete main)
Format settings, Endianness : Big
Codec ID : A_AC3
Duration : 2h 3mn
Bit rate mode : Constant
Bit rate : 192 Kbps
Channel count : 2 channels
Channel positions : Front: L R
Sampling rate : 48.0 KHz
Bit depth : 16 bits
Compression mode : Lossy
Stream size : 169 MiB (2%)
Title : |Одноголосый закадровый, В. Сонькин|
Language : Russian
Default : No
Forced : No
Audio #3
ID : 4
Format : DTS
Format/Info : Digital Theater Systems
Mode : 16
Format settings, Endianness : Big
Codec ID : A_DTS
Duration : 2h 3mn
Bit rate mode : Constant
Bit rate : 1 509 Kbps
Channel count : 6 channels
Channel positions : Front: L C R, Side: L R, LFE
Sampling rate : 48.0 KHz
Bit depth : 24 bits
Compression mode : Lossy
Stream size : 1.30 GiB (13%)
Language : English
Default : No
Forced : No
Audio #4
ID : 5
Format : DTS
Format/Info : Digital Theater Systems
Mode : 16
Format settings, Endianness : Big
Codec ID : A_DTS
Duration : 2h 3mn
Bit rate mode : Constant
Bit rate : 1 509 Kbps
Channel count : 2 channels
Channel positions : Front: L R
Sampling rate : 48.0 KHz
Bit depth : 24 bits
Compression mode : Lossy
Stream size : 1.30 GiB (13%)
Title : |Isolated Score by Henry Mancini|
Language : English
Default : No
Forced : No
Text
ID : 6
Format : UTF-8
Codec ID : S_TEXT/UTF8
Codec ID/Info : UTF-8 Plain Text
Language : English
Default : No
Forced : No
Menu
00:00:00.000 : en:00:00:00.000
00:16:15.683 : en:00:16:15.683
00:25:05.754 : en:00:25:05.754
00:41:57.598 : en:00:41:57.598
00:49:17.746 : en:00:49:17.746
00:54:02.030 : en:00:54:02.030
01:05:18.832 : en:01:05:18.832
01:13:46.422 : en:01:13:46.422
01:25:02.180 : en:01:25:02.180
01:33:56.631 : en:01:33:56.631
01:48:12.861 : en:01:48:12.861
01:55:59.369 : en:01:55:59.369

Скриншоты


_________________
Показать сообщения:    

Текущее время: Сегодня 23:02

Часовой пояс: GMT



Вы не можете начинать темы
Вы не можете отвечать на сообщения
Вы не можете редактировать свои сообщения
Вы не можете удалять свои сообщения
Вы не можете голосовать в опросах
Вы не можете прикреплять файлы к сообщениям
Вы не можете скачивать файлы