Важное объявление!
У Нас Все раздачи мультитрекерные, при нуле пиров в релизах, можете смело вставать на закачку!
 
Автор Сообщение

HUNTER

Стаж:
4 года 4 месяца
Сообщений:
56848

Репутация: 101

[+] [-]
Вне форума [Профиль] [ЛС]

Экипаж-
Год выпуска: 2016
Страна: Россия (Фонд Кино, Студия ТриТэ, Централ Партнершип)
Жанр: Драма, Приключения, Триллер
Продолжительность: 02:17:12
Перевод: Не требуется
Режиссер: Николай Лебедев-Роли исполняли:

Алексей Гущин - Данила Козловский
Леонид Зинченко - Владимир Машков
Александра - Агне Грудите (озвучивала Ирина Лачина)
Андрей - Сергей Кемпо
Вика - Катерина Шпица
Отец - Сергей Шакуров
Шестаков - Сергей Газаров
Жена Зинченко - Елена Яковлева
Маргарита - Алёна Бабенко
Тамара Игоревна - Александра Яковлева
Сотрудница фонда - Нина Усатова
Экзаменатор - Олег Фомин
Пассажирка бизнес-класса - Нина Гребешкова
-Описание: История талантливого молодого летчика Алексея Гущина. Он не признает авторитетов, предпочитая поступать в соответствии с личным кодексом чести. За невыполнение абсурдного приказа его выгоняют из военной авиации, и только чудом он получает шанс летать на гражданских самолетах.
Гущин начинает свою летную жизнь сначала. Его наставник — командир воздушного судна — суровый и принципиальный Леонид Зинченко. Его коллега — второй пилот, неприступная красавица Александра. Отношения складываются непросто. Но на грани жизни и смерти, когда земля уходит из-под ног, вокруг — огонь и пепел и только в небе есть спасение, Гущин показывает все, на что он способен. Только вместе экипаж сможет совершить подвиг и спасти сотни жизней.
-Премьера: 22 апреля 2016 (21 апреля 2016)
Бюджет: RUB 650 000 000
Кассовые сборы (Россия): $22 419 659

[img]https://rating.kinopoisk.ru/839818.gif[/img]. .
-Качество: BDRip (by Ash61) [с BD 3D Rus]
Контейнер: MKV
Формат 3D: Half OverUnder / Вертикальная анаморфная стереопара
Порядок ракурсов: левый ракурс первый-Видео: AVC / 1920х1080p / 23,976 fps / 10.9 Mbps
Аудио: Русский / AC3 / 48 KHz / 5.1 ch / 640 Kbps (Оригинал - BD 3D Rus)
Субтитры: Отсутствуют

MediaInfo

General
Unique ID : 217282169599465715479440157419616805794 (0xA377060FFA58E600AEA169FED77F23A2)
Complete name : E:\Ekipazh(2016)3D-halfOU(Ash61).mkv
Format : Matroska
Format version : Version 2
File size : 11.3 GiB
Duration : 2h 17mn
Overall bit rate : 11.8 Mbps
Movie name : Экипаж (2016) в 3Д
Encoded date : UTC 2016-06-09 14:36:15
Writing application : mkvmerge v5.8.0 ('No Sleep / Pillow') built on Sep 2 2012 15:37:04
Writing library : libebml v1.2.3 + libmatroska v1.3.0
Video
ID : 1
Format : AVC
Format/Info : Advanced Video Codec
Format profile : High@L4.1
Format settings, CABAC : Yes
Format settings, ReFrames : 4 frames
Codec ID : V_MPEG4/ISO/AVC
Duration : 2h 17mn
Bit rate : 10.9 Mbps
Width : 1 920 pixels
Height : 1 080 pixels
Display aspect ratio : 16:9
Frame rate mode : Constant
Frame rate : 23.976 fps
Color space : YUV
Chroma subsampling : 4:2:0
Bit depth : 8 bits
Scan type : Progressive
Bits/(Pixel*Frame) : 0.219
Stream size : 10.4 GiB (93%)
Title : BDRip by Ash61
Writing library : x264 core 146 r2538 121396c
Encoding settings : cabac=1 / ref=4 / deblock=1:-3:-3 / analyse=0x3:0x113 / me=umh / subme=10 / psy=1 / psy_rd=1.00:0.00 / mixed_ref=1 / me_range=32 / chroma_me=1 / trellis=2 / 8x8dct=1 / cqm=0 / deadzone=21,11 / fast_pskip=1 / chroma_qp_offset=-2 / threads=12 / lookahead_threads=3 / sliced_threads=0 / nr=0 / decimate=1 / interlaced=0 / bluray_compat=0 / constrained_intra=0 / bframes=12 / b_pyramid=2 / b_adapt=2 / b_bias=0 / direct=3 / weightb=1 / open_gop=0 / weightp=2 / keyint=250 / keyint_min=23 / scenecut=40 / intra_refresh=0 / rc_lookahead=60 / rc=crf / mbtree=1 / crf=15.5 / qcomp=0.70 / qpmin=0 / qpmax=69 / qpstep=4 / vbv_maxrate=40000 / vbv_bufsize=30000 / crf_max=0.0 / nal_hrd=none / filler=0 / frame-packing=4 / ip_ratio=1.40 / aq=1:0.70
Language : Russian
Default : Yes
Forced : No
Audio
ID : 2
Format : AC-3
Format/Info : Audio Coding 3
Mode extension : CM (complete main)
Format settings, Endianness : Big
Codec ID : A_AC3
Duration : 2h 17mn
Bit rate mode : Constant
Bit rate : 640 Kbps
Channel(s) : 6 channels
Channel positions : Front: L C R, Side: L R, LFE
Sampling rate : 48.0 KHz
Bit depth : 16 bits
Compression mode : Lossy
Stream size : 628 MiB (5%)
Title : Оигинал - BD 3D Rus
Language : Russian
Default : Yes
Forced : No
Menu
00:00:00.000 : :1
00:10:07.315 : :2
00:22:12.706 : :3
00:32:04.464 : :4
00:44:39.427 : :5
00:54:12.749 : :6
01:05:24.003 : :7
01:17:50.374 : :8
01:29:18.436 : :9
01:37:11.659 : :10
01:49:33.734 : :11
02:05:27.603 : :12

Для оценки 3Д - Анимированные скрины
















_________________
Показать сообщения:    

Текущее время: Сегодня 22:26

Часовой пояс: GMT



Вы не можете начинать темы
Вы не можете отвечать на сообщения
Вы не можете редактировать свои сообщения
Вы не можете удалять свои сообщения
Вы не можете голосовать в опросах
Вы не можете прикреплять файлы к сообщениям
Вы не можете скачивать файлы
Наши партнеры: интернет магазин Ивановского трикотажа textilla.ru