Важное объявление!
У Нас Все раздачи мультитрекерные, при нуле пиров в релизах, можете смело вставать на закачку!
 
Автор Сообщение

HUNTER

Стаж:
4 года 4 месяца
Сообщений:
56719

Репутация: 101

[+] [-]
Вне форума [Профиль] [ЛС]

Эдем / Eden
Страна: Испания, Малайзия
Студия: Gobsmack, H&H Creative Ventures
Жанр: триллер, драма
Год выпуска: 2014
Продолжительность: 01:36:26
Перевод: Любительский (многоголосый закадровый) GreenРай Studio
Cубтитры: Английский
Оригинальная аудиодорожка: Английский
Режиссер: Шиам Мадиражу / Shyam Madiraju
В ролях: Джессика Лаундес, Джеймс Римар, Санг Кенг, Диего Бонета, Нэйт Паркер, Роб Майес, Юджин Саймон, Итан Пек, Марио Касас, Джои Поллари
Описание: После падения самолета у берегов необитаемого острова, выжившие члены международной команды по футболу сталкиваются одновременно и с дикой природой, и с ухудшением психики своих же товарищей.


Релиз группы:
Тип релиза: WEB-DL 720p
Контейнер: MKV
Видео: 1280x532, 23.976 fps, MPEG-4 AVC, 3 924 Kbps avg
Аудио #1: (Rus) 48.0 KHz, AC-3, 6 ch, ~ 384 Kbps avg
Аудио #2: (Eng) 48.0 KHz, AC-3, 6 ch, ~ 384 Kbps avg

MediaInfo

Format : Matroska
Format version : Version 2
File size : 3.22 GiB
Duration : 1h 36mn
Overall bit rate : 4 787 Kbps
Encoded date : UTC 2015-09-29 18:44:22
Writing application : mkvmerge v4.9.1 ('Ich will') built on Sep 21 2011 17:48:11
Writing library : libebml v1.2.1 + libmatroska v1.2.0
Video
ID : 1
Format : AVC
Format/Info : Advanced Video Codec
Format profile : Main@L3.1
Format settings, CABAC : No
Format settings, ReFrames : 2 frames
Codec ID : V_MPEG4/ISO/AVC
Duration : 1h 36mn
Bit rate : 3 924 Kbps
Width : 1 280 pixels
Height : 532 pixels
Display aspect ratio : 2.40:1
Frame rate mode : Constant
Frame rate : 23.976 fps
Color space : YUV
Chroma subsampling : 4:2:0
Bit depth : 8 bits
Scan type : Progressive
Bits/(Pixel*Frame) : 0.240
Stream size : 2.64 GiB (82%)
Title : Eden.2014.720p.WEB-DL.DD5.1.H264-RARBG
Language : English
Default : Yes
Forced : No
Color primaries : BT.709
Transfer characteristics : BT.709
Matrix coefficients : BT.709
Audio #1
ID : 2
Format : AC-3
Format/Info : Audio Coding 3
Mode extension : CM (complete main)
Format settings, Endianness : Big
Codec ID : A_AC3
Duration : 1h 36mn
Bit rate mode : Constant
Bit rate : 384 Kbps
Channel(s) : 6 channels
Channel positions : Front: L C R, Side: L R, LFE
Sampling rate : 48.0 KHz
Bit depth : 16 bits
Compression mode : Lossy
Stream size : 265 MiB (8%)
Title : GreenРай Studio
Language : Russian
Default : Yes
Forced : No
Audio #2
ID : 3
Format : AC-3
Format/Info : Audio Coding 3
Mode extension : CM (complete main)
Format settings, Endianness : Big
Codec ID : A_AC3
Duration : 1h 36mn
Bit rate mode : Constant
Bit rate : 384 Kbps
Channel(s) : 6 channels
Channel positions : Front: L C R, Side: L R, LFE
Sampling rate : 48.0 KHz
Bit depth : 16 bits
Compression mode : Lossy
Stream size : 265 MiB (8%)
Title : Original
Language : English
Default : No
Forced : No
Text
ID : 4
Format : UTF-8
Codec ID : S_TEXT/UTF8
Codec ID/Info : UTF-8 Plain Text
Language : English
Default : No
Forced : No

Скриншоты

Внимание! Присутствует ненормативная лексика.

_________________
Показать сообщения:    

Текущее время: Сегодня 18:36

Часовой пояс: GMT



Вы не можете начинать темы
Вы не можете отвечать на сообщения
Вы не можете редактировать свои сообщения
Вы не можете удалять свои сообщения
Вы не можете голосовать в опросах
Вы не можете прикреплять файлы к сообщениям
Вы не можете скачивать файлы