Важное объявление!
У Нас Все раздачи мультитрекерные, при нуле пиров в релизах, можете смело вставать на закачку!
 
Автор Сообщение

HUNTER

Стаж:
4 года 4 месяца
Сообщений:
56809

Репутация: 101

[+] [-]
Вне форума [Профиль] [ЛС]

ЩЕПКА / SLIVER-
-Страна: США
Студия: Paramount Pictures
Жанр: Триллер, мелодрама
Год выпуска: 1993
Продолжительность: 01:46:31-Перевод 1: Профессиональный (многоголосый закадровый) НТВ+
Перевод 2: Профессиональный (многоголосый закадровый) Премьер видео
Перевод 3: Авторский (одноголосый закадровый) А.Михалев
Перевод 4: Авторский (одноголосый закадровый) А.Пронин
Cубтитры: русские, английские
Оригинальная аудиодорожка: английский-Режиссер: Филлип Нойс / Phillip Noyce
Сценарий: Джо Эстерхаз, Айра Левин
Продюсер: Роберт Эванс, Джо Эстерхаз, Хоук Кох, ...
Оператор: Вилмош Жигмонд
Композитор: Говард Шор
Художник: Пол Силберт, Питер Лэндсдаун Смит, Дебора Линн Скотт, ...
Монтаж: Ричард Фрэнсис-Брюс, Уильям Хой, Берт Ловитт
В ролях: Шэрон Стоун, Уильям Болдуин, Том Беренджер, Полли Уокер, Коллин Кэмп, Аманда Формен, Мартин Ландау, Си Си Эйч Паундер, Нина Фош, Кин Кертис, Николас Прайор, Энн Бетанкорт, Тони Пек, Франц Тернер, Раду Гэйвор, Эллисон Маки, Хосе Рей, Джим Бивер, Гилберт Розалес, Мик Скриба, Стив Карлайл, Марк Брэмхолл, Сид МакКой, Сэнди Гутман, Робин Гров, Мэттью Фэйзон, Марне Паттерсон, Кристин Той, Филип Хоффман, Николь Орт-Паллавичини, Артур Экдал, Патриция Эллисон, Джеймс Ной, Эдуардо Н.Т. Андраде, Виктор Брандт, Райан Кутрона, Роберт Миано, Стив Истин, Уэнди Катлер, Крэйг Хоскин, Клифф Флеминг-Описание: Сотрудница издательства Кей Норрис переезжает на новую квартиру в модном небоскребе, прозванном «щепка». Там она становится объектом соперничества двух мужчин - владельца дома и одного из жильцов, автора популярных детективов. Серия таинственных убийств, происходящих в доме, наводит ее на мысль, что вокруг нее самой сжимается опасное кольцо. Кей понимает, что неизвестный убийца - один из ее поклонников...-за дорожку премьер видео спасибо formally- -Тип релиза: BDRemux 1080p
Контейнер: MKV
Видео: MPEG-4 AVC Video 21854 kbps 1080p 23,976fps 16:9 High Profile 4.1
Аудио 1: MVO HTB+ AC3 192 kBit/s 48 kHz 2.0 DD
Аудио 2: MVO "Премьер видео" AC3 192 kBit/s 48 kHz 2.0 DD
Аудио 3: AVO Михалёв AC3 448 kBit/s 48 kHz 5.1 DD
Аудио 4: AVO Пронин AC3 192 kBit/s 48 kHz 2.0 DD
Аудио 5: English DTS-HD Master Audio 2.0 48 kHz 1561 kbps 24-bit (DTS Core: 2.0 / 48 kHz / 1509 kbps / 24-bit)
Аудио 6: English DVD AC3 448 kBit/s 48 kHz 5.1 DD
Формат субтитров: softsub (SRT)-

MediaInfo

General
Unique ID : 187530940426826150041850043974305830851 (0x8D152536C0BB655DA110EACE76B9D7C3)
Complete name : I:\__R__\Sliver.mkv
Format : Matroska
Format version : Version 4 / Version 2
File size : 18.5 GiB
Duration : 1h 47mn
Overall bit rate mode : Variable
Overall bit rate : 24.6 Mbps
Movie name : Respector
Encoded date : UTC 2014-03-15 12:45:47
Writing application : mkvmerge v6.5.0 ('Isn't she lovely') built on Oct 20 2013 12:50:05
Writing library : libebml v1.3.0 + libmatroska v1.4.1
Video
ID : 1
Format : AVC
Format/Info : Advanced Video Codec
Format profile : High@L4.1
Format settings, CABAC : Yes
Format settings, ReFrames : 2 frames
Format settings, GOP : M=1, N=10
Codec ID : V_MPEG4/ISO/AVC
Duration : 1h 47mn
Bit rate mode : Variable
Width : 1 920 pixels
Height : 1 080 pixels
Display aspect ratio : 16:9
Frame rate mode : Constant
Frame rate : 23.976 fps
Color space : YUV
Chroma subsampling : 4:2:0
Bit depth : 8 bits
Scan type : Progressive
Language : English
Default : Yes
Forced : No
Audio #1
ID : 2
Format : AC-3
Format/Info : Audio Coding 3
Mode extension : CM (complete main)
Format settings, Endianness : Big
Codec ID : A_AC3
Duration : 1h 47mn
Bit rate mode : Constant
Bit rate : 192 Kbps
Channel count : 2 channels
Channel positions : Front: L R
Sampling rate : 48.0 KHz
Bit depth : 16 bits
Compression mode : Lossy
Stream size : 148 MiB (1%)
Title : MVO HTB+ AC3 192 kBit/s 48 kHz 2.0 DD
Language : Russian
Default : No
Forced : No
Audio #2
ID : 3
Format : AC-3
Format/Info : Audio Coding 3
Mode extension : CM (complete main)
Format settings, Endianness : Big
Codec ID : A_AC3
Duration : 1h 47mn
Bit rate mode : Constant
Bit rate : 192 Kbps
Channel count : 2 channels
Channel positions : Front: L R
Sampling rate : 48.0 KHz
Bit depth : 16 bits
Compression mode : Lossy
Stream size : 148 MiB (1%)
Title : MVO "Премьер видео" AC3 192 kBit/s 48 kHz 2.0 DD
Language : Russian
Default : No
Forced : No
Audio #3
ID : 4
Format : AC-3
Format/Info : Audio Coding 3
Mode extension : CM (complete main)
Format settings, Endianness : Big
Codec ID : A_AC3
Duration : 1h 47mn
Bit rate mode : Constant
Bit rate : 448 Kbps
Channel count : 6 channels
Channel positions : Front: L C R, Side: L R, LFE
Sampling rate : 48.0 KHz
Bit depth : 16 bits
Compression mode : Lossy
Stream size : 345 MiB (2%)
Title : AVO Михалёв AC3 448 kBit/s 48 kHz 5.1 DD
Language : Russian
Default : No
Forced : No
Audio #4
ID : 5
Format : AC-3
Format/Info : Audio Coding 3
Mode extension : CM (complete main)
Format settings, Endianness : Big
Codec ID : A_AC3
Duration : 1h 47mn
Bit rate mode : Constant
Bit rate : 192 Kbps
Channel count : 2 channels
Channel positions : Front: L R
Sampling rate : 48.0 KHz
Bit depth : 16 bits
Compression mode : Lossy
Stream size : 148 MiB (1%)
Title : AVO Пронин AC3 192 kBit/s 48 kHz 2.0 DD
Language : Russian
Default : No
Forced : No
Audio #5
ID : 6
Format : DTS
Format/Info : Digital Theater Systems
Format profile : MA / Core
Mode : 16
Format settings, Endianness : Big
Codec ID : A_DTS
Duration : 1h 47mn
Bit rate mode : Variable
Bit rate : Unknown / 1 509 Kbps
Channel count : 2 channels
Channel positions : Front: L R
Sampling rate : 48.0 KHz
Bit depth : 24 bits
Compression mode : Lossless / Lossy
Language : English
Default : No
Forced : No
Audio #6
ID : 7
Format : AC-3
Format/Info : Audio Coding 3
Mode extension : CM (complete main)
Format settings, Endianness : Big
Codec ID : A_AC3
Duration : 1h 47mn
Bit rate mode : Constant
Bit rate : 448 Kbps
Channel count : 6 channels
Channel positions : Front: L C R, Side: L R, LFE
Sampling rate : 48.0 KHz
Bit depth : 16 bits
Compression mode : Lossy
Stream size : 345 MiB (2%)
Title : English DVD AC3 448 kBit/s 48 kHz 5.1 DD
Language : English
Default : No
Forced : No
Text #1
ID : 8
Format : UTF-8
Codec ID : S_TEXT/UTF8
Codec ID/Info : UTF-8 Plain Text
Language : Russian
Default : No
Forced : No
Text #2
ID : 9
Format : UTF-8
Codec ID : S_TEXT/UTF8
Codec ID/Info : UTF-8 Plain Text
Language : English
Default : No
Forced : No
Menu
00:00:00.000 : :Chapter 01
00:04:12.877 : :Chapter 02
00:09:54.802 : :Chapter 03
00:19:07.729 : :Chapter 04
00:30:37.544 : :Chapter 05
00:38:24.135 : :Chapter 06
00:50:17.472 : :Chapter 07
00:57:37.954 : :Chapter 08
01:08:27.728 : :Chapter 09
01:12:09.241 : :Chapter 10
01:14:17.286 : :Chapter 11
01:26:37.108 : :Chapter 12
01:32:50.565 : :Chapter 13
01:46:29.383 : :Chapter 14

Скриншоты


_________________
Показать сообщения:    

Текущее время: Сегодня 20:20

Часовой пояс: GMT



Вы не можете начинать темы
Вы не можете отвечать на сообщения
Вы не можете редактировать свои сообщения
Вы не можете удалять свои сообщения
Вы не можете голосовать в опросах
Вы не можете прикреплять файлы к сообщениям
Вы не можете скачивать файлы