Важное объявление!
У Нас Все раздачи мультитрекерные, при нуле пиров в релизах, можете смело вставать на закачку!
 
Автор Сообщение

HUNTER

Стаж:
4 года 4 месяца
Сообщений:
56842

Репутация: 101

[+] [-]
Вне форума [Профиль] [ЛС]

Щелкунчик

-Год производства: 2004
Страна: Россия
Жанр: Мультфильм
Продолжительность: 01:21:12
Перевод: Не требуется
Субтитры: отсутствуют-Режиссер: Татьяна Ильина-Описание: Одна из версий знаменитой сказки Э.Гофмана - это рождественская история живых людей и оживших игрушек, разыгрываемая под волшебную музыку в прекрасных старинных интерьерах Петербурга. Капризный черствый принц превращен в уродливую деревянную куклу - Щелкунчика, и лишь чистое любящее сердце маленькой девочки способно освободить его от злых чар.
-Качество видео: DVDRip
Формат видео: avi
Видео кодек: XviD
Аудио кодек: mp3
Видео: 720x384 (1.88:1), 25 fps, XviD MPEG-4 ~2402 kbps avg, 0.35 bit/pixel
Аудио: 48 kHz, MPEG Layer 3, 2 ch, ~128.00 kbps avg
Автор рипа: falco
-

Доп. информация

Скриншоты

MediaInfo

Код: copyText_writeLink('this.parentNode.parentNode.nextSibling.nextSibling');
General
Complete name : D:\Торенты\Chelkyn4ik.DVDRip.AVI
Format : AVI
Format/Info : Audio Video Interleave
File size : 1.37 GiB
Duration : 1h 21mn
Overall bit rate : 2 416 Kbps
Video
ID : 0
Format : MPEG-4 Visual
Format profile : Advanced Simple@L5
Format settings, BVOP : 2
Format settings, QPel : No
Format settings, GMC : No warppoints
Format settings, Matrix : Default (MPEG)
Muxing mode : Packed bitstream
Codec ID : XVID
Codec ID/Hint : XviD
Duration : 1h 21mn
Bit rate : 2 275 Kbps
Width : 720 pixels
Height : 384 pixels
Display aspect ratio : 1.85:1
Frame rate : 25.000 fps
Color space : YUV
Chroma subsampling : 4:2:0
Bit depth : 8 bits
Scan type : Progressive
Compression mode : Lossy
Bits/(Pixel*Frame) : 0.329
Stream size : 1.29 GiB (94%)
Title : DVD3VIDEO
Writing library : XviD 64
Audio
ID : 1
Format : MPEG Audio
Format version : Version 1
Format profile : Layer 3
Mode : Joint stereo
Mode extension : MS Stereo
Codec ID : 55
Codec ID/Hint : MP3
Duration : 1h 21mn
Bit rate mode : Constant
Bit rate : 128 Kbps
Channel(s) : 2 channels
Sampling rate : 48.0 KHz
Compression mode : Lossy
Stream size : 74.3 MiB (5%)
Alignment : Split accross interleaves
Interleave, duration : 24 ms (0.60 video frame)
Title : DVD3AUDIO00

_________________
Показать сообщения:    

Текущее время: Сегодня 16:13

Часовой пояс: GMT



Вы не можете начинать темы
Вы не можете отвечать на сообщения
Вы не можете редактировать свои сообщения
Вы не можете удалять свои сообщения
Вы не можете голосовать в опросах
Вы не можете прикреплять файлы к сообщениям
Вы не можете скачивать файлы
Наши партнеры: интернет магазин Ивановского трикотажа textilla.ru