Важное объявление!
У Нас Все раздачи мультитрекерные, при нуле пиров в релизах, можете смело вставать на закачку!
 
Автор Сообщение

HUNTER

Стаж:
4 года 4 месяца
Сообщений:
56755

Репутация: 101

[+] [-]
Вне форума [Профиль] [ЛС]

Шэгги и Скуби-Ду ключ найдут!
Shaggy & Scooby-Doo: Get a Clue!
Сезон 1/Серии 1-4

-Год производства: 2006 г.
Страна: USA
Жанр: Мультфильм
Продолжительность: 01:29:01
Кол-во эпизодов: 4 из 4
Перевод: Профессиональный (полное дублирование)
Субтитры: Отсутствуют-Режиссер: Джо Руби (Joe Ruby), Кен Спиарс (Ken Spears), Ивао Такамото (Iwao Takamoto)-Описание: В этой новой развлекательной серии приключений Скуби-Ду внезапно включается в Погоню за богатством, когда Шэгги наследует состояние своего дяди Альберта, гениального изобретателя, ныне скрывающегося от недобрых интриг доктора Фибса. Поселившись в Шейглфорд Мэнор, где живет неповоротливый дворецкий-робот Роби, им приходится разоблачать планы неуклюжих шпионов Фибса. И до того, как они останутся без дома, Шэгги садится в новую волшебную машину и отправляется в Швейцарию, чтобы предотвратить глобальное потепление (Еще фондю для Скуби-Ду). Затем друзья проникают в Высшее общество и буквально сводят с ума членов загородного клуба и злодеев Фибса, пытаясь стащить как можно больше еды. В конце концов, наступает время отравиться домой, где их ждет Вечеринка. Сможет ли злой робот Фибса А.Р.Т. провалить их мероприятие?-Качество видео: DVDRip
Формат видео: avi
Видео кодек: XviD
Аудио кодек: mp3
Видео: 720x544 (1.32:1), 25 fps, XviD MPEG-4 ~1085 kbps avg, 0.11 bit/pixel
Аудио: 48 kHz, MPEG Layer 3, 2 ch, ~192.00 kbps avg
Автор рипа: falco- -

Mediainfo

Код: copyText_writeLink('this.parentNode.parentNode.nextSibling.nextSibling');
General
Complete name : D:\Торенты\Шэгги и Скуби-Ду ключ найдут! Часть 1.AVI
Format : AVI
Format/Info : Audio Video Interleave
File size : 700 MiB
Duration : 1h 29mn
Overall bit rate : 1 099 Kbps
Video
ID : 0
Format : MPEG-4 Visual
Format profile : Advanced Simple@L5
Format settings, BVOP : 2
Format settings, QPel : No
Format settings, GMC : No warppoints
Format settings, Matrix : Default (H.263)
Muxing mode : Packed bitstream
Codec ID : XVID
Codec ID/Hint : XviD
Duration : 1h 29mn
Bit rate : 897 Kbps
Width : 720 pixels
Height : 544 pixels
Display aspect ratio : 4:3
Frame rate : 25.000 fps
Color space : YUV
Chroma subsampling : 4:2:0
Bit depth : 8 bits
Scan type : Progressive
Compression mode : Lossy
Bits/(Pixel*Frame) : 0.092
Stream size : 572 MiB (82%)
Title : DVD3VIDEO
Writing library : XviD 64
Audio
ID : 1
Format : MPEG Audio
Format version : Version 1
Format profile : Layer 3
Mode : Joint stereo
Mode extension : MS Stereo
Codec ID : 55
Codec ID/Hint : MP3
Duration : 1h 27mn
Bit rate mode : Constant
Bit rate : 192 Kbps
Channel(s) : 2 channels
Sampling rate : 48.0 KHz
Compression mode : Lossy
Stream size : 120 MiB (17%)
Alignment : Split accross interleaves
Interleave, duration : 24 ms (0.61 video frame)
Title : DVD3AUDIO00

Эпизоды


1. Погоня за богатством
2. Еще фондю для Скуби Ду
3. Скуби из высшего общества
4. Вечеринка

Скриншоты


_________________
Показать сообщения:    

Текущее время: Сегодня 12:33

Часовой пояс: GMT



Вы не можете начинать темы
Вы не можете отвечать на сообщения
Вы не можете редактировать свои сообщения
Вы не можете удалять свои сообщения
Вы не можете голосовать в опросах
Вы не можете прикреплять файлы к сообщениям
Вы не можете скачивать файлы