Важное объявление!
У Нас Все раздачи мультитрекерные, при нуле пиров в релизах, можете смело вставать на закачку!
 
Автор Сообщение

HUNTER

Стаж:
4 года 4 месяца
Сообщений:
56733

Репутация: 101

[+] [-]
Вне форума [Профиль] [ЛС]

Шутки ангела
Страна: Россия
Студия: Land Cinema
Жанр: комедия
Год выпуска: 2013
Продолжительность: 01:26:03
Перевод: Не требуется
Cубтитры: нет
Оригинальная аудиодорожка: русский
Режиссер: Евгений Аксёнов
В ролях: Артур Ваха, Ростислав Бершауэр, Мария Бортник, Владимир Фоков, Алексей Федотов, Елена Купрашевич, Алена Силова, Геннадий Смирнов, Ольга Кирсанова-Миропольская, Алексей Васильев, Сергей Бызгу, Татьяна Иванова, Марина Ордина, Олег Петров, Данил Кокин, Владимир Маслаков, Александр Михалев, Дмитрий Петрушков, Александр Есаулов, Максим Крупский, Игорь Ключников, Юрий Яковлев, Екатерина Гудожник, Андрей Белоцерковский
Описание: Жил-был тиран и самодур, бизнесмен Мухин. Так бы дальше и жил, мучая домочадцев и подчиненных, если бы… Если бы не началась за ним охота тайного убийцы, не было у него верного друга Пчелкина, надежного охранника Михалыча и маленькой дочки, которая подружилась с ангелом...
Сэмпл: http://multi-up.com/1044819
Тип релиза: HDTV 1080i
Контейнер: TS
Видео: AVC, 1920x1080, (16:9), 25 fps, 7.3 Mbps
Аудио: Русский, MP2, 48 kHz, 2 ch, 320 kbps

MediaInfo

General
ID : 1 (0x1)
Complete name : C:\Шутки ангела_2013_HDTV 1080i_RU.ts
Format : MPEG-TS
File size : 4.90 GiB
Duration : 1h 26mn
Overall bit rate mode : Variable
Overall bit rate : 8 075 Kbps
Video
ID : 1681 (0x691)
Menu ID : 1680 (0x690)
Format : AVC
Format/Info : Advanced Video Codec
Format profile : Main@L4
Format settings, CABAC : Yes
Format settings, ReFrames : 4 frames
Format settings, GOP : M=4, N=24
Codec ID : 27
Duration : 1h 26mn
Bit rate : 7 353 Kbps
Width : 1 920 pixels
Height : 1 080 pixels
Display aspect ratio : 16:9
Frame rate : 25.000 fps
Color space : YUV
Chroma subsampling : 4:2:0
Bit depth : 8 bits
Scan type : Interlaced
Scan order : Top Field First
Bits/(Pixel*Frame) : 0.142
Stream size : 4.46 GiB (91%)
Color range : Limited
Color primaries : BT.709
Transfer characteristics : BT.709
Matrix coefficients : BT.709
Audio
ID : 1682 (0x692)
Menu ID : 1680 (0x690)
Format : MPEG Audio
Format version : Version 1
Format profile : Layer 2
Codec ID : 3
Duration : 1h 26mn
Bit rate mode : Constant
Bit rate : 320 Kbps
Channel(s) : 2 channels
Sampling rate : 48.0 KHz
Compression mode : Lossy
Stream size : 199 MiB (4%)
Language : Russian

Скриншоты


_________________
Показать сообщения:    

Текущее время: Сегодня 19:24

Часовой пояс: GMT



Вы не можете начинать темы
Вы не можете отвечать на сообщения
Вы не можете редактировать свои сообщения
Вы не можете удалять свои сообщения
Вы не можете голосовать в опросах
Вы не можете прикреплять файлы к сообщениям
Вы не можете скачивать файлы