Важное объявление!
У Нас Все раздачи мультитрекерные, при нуле пиров в релизах, можете смело вставать на закачку!
 
Автор Сообщение

HUNTER

Стаж:
4 года 4 месяца
Сообщений:
56749

Репутация: 101

[+] [-]
Вне форума [Профиль] [ЛС]

Шугарлендский экспресс / The Sugarland Express-
Год выпуска: 1974
Выпущено: США
Жанр: драма, комедия, криминал, приключения
Продолжительность: 01:49:52
Перевод: Профессиональный (многоголосый, закадровый) Blu-ray CEE
Оригинальная звуковая дорожка: English
Субтитры: Russian (Forced), Russian (Full), English (Full), English (SDH)-Режиссер: Стивен Спилберг / Steven Spielberg
В ролях: Голди Хоун, Бен Джонсон, Майкл Сакс, Уильям Этертон, Грегори Уэлкотт, Стив Кэнэли, Луиз Лэтэм, Харрисон Занук, А.Л. Кэмп, Джесси Ли Фултон
О фильме: «Шугарлэнд Экспресс» основан на подлинной истории Лу Джин Поплин, которая похитила заключенного из техасской тюрьмы и вовлекла полицию в безумную погоню по всей территории штата, пытаясь спасти своего сына от грозящего ему усыновления приемными родителями.
Релиз:
Формат: MKV
Видео: 1280x544 at 23.976 fps, x.264@L4.1, ~8728 kbps avg
Аудио #01: Russian: 48 kHz, DTS, 2/0 (L,R) ch, ~448.00 kbps avg |Многоголосый закадровый, Blu-ray CEE|
Аудио #02: English: 48 kHz, DTS, 2/0 (L,R) ch, ~1509.00 kbps avg
Семпл-

Скриншоты


-

mInfo

Формат : Matroska
Версия формата : Version 2
Размер файла : 8,20 Гбайт
Продолжительность : 1 ч. 49 м.
Общий поток : 10,7 Мбит/сек
Название фильма : The Sugarland Express (1974)-Release for HDCLUB
Дата кодирования : UTC 2014-11-24 07:30:08
Программа кодирования : mkvmerge v5.8.0 ('No Sleep / Pillow') built on Sep 2 2012 15:37:04
Библиотека кодирования : libebml v1.2.3 + libmatroska v1.3.0
Видео
Идентификатор : 1
Формат : AVC
Формат/Информация : Advanced Video Codec
Профиль формата : High@L4.1
Параметр CABAC формата : Да
Параметр ReFrames формата : 12 кадров
Идентификатор кодека : V_MPEG4/ISO/AVC
Продолжительность : 1 ч. 49 м.
Битрейт : 8518 Кбит/сек
Ширина : 1280 пикселей
Высота : 544 пикселя
Соотношение сторон : 2,35:1
Режим частоты кадров : Постоянный
Частота кадров : 23,976 кадра/сек
Цветовое пространство : YUV
Субдискретизация насыщенности : 4:2:0
Битовая глубина : 8 бит
Тип развёртки : Прогрессивная
Бит/(Пиксели*Кадры) : 0.510
Размер потока : 6,54 Гбайт (80%)
Заголовок : Release for HDCLUB
Библиотека кодирования : x264 core 142 r2431+42 c69a006 tMod [8-bit@all X86_64]
Настройки программы : cabac=1 / ref=12 / deblock=1:-3:-3 / analyse=0x3:0x133 / me=tesa / subme=11 / psy=1 / fade_compensate=0.00 / psy_rd=0.90:0.00 / mixed_ref=1 / me_range=24 / chroma_me=1 / trellis=2 / 8x8dct=1 / cqm=0 / deadzone=21,11 / fast_pskip=0 / chroma_qp_offset=-2 / threads=6 / lookahead_threads=1 / sliced_threads=0 / nr=0 / decimate=0 / interlaced=0 / bluray_compat=0 / constrained_intra=0 / fgo=0 / bframes=8 / b_pyramid=2 / b_adapt=2 / b_bias=0 / direct=3 / weightb=1 / open_gop=0 / weightp=2 / keyint=250 / keyint_min=23 / scenecut=40 / intra_refresh=0 / rc=crf / mbtree=0 / crf=18.0000 / qcomp=0.60 / qpmin=0:0:0 / qpmax=69:69:69 / qpstep=4 / ip_ratio=1.20 / pb_ratio=1.10 / aq=4:0.85 / aq-sensitivity=10.00 / aq-factor=1.00:1.00:1.00 / aq2=0 / aq3=0
Язык : English
Default : Нет
Forced : Нет
Аудио #1
Идентификатор : 2
Формат : DTS
Формат/Информация : Digital Theater Systems
Режим : 16
Параметр Endianness формата : Big
Идентификатор кодека : A_DTS
Продолжительность : 1 ч. 49 м.
Вид битрейта : Постоянный
Битрейт : 447 Кбит/сек
Каналы : 2 канала
Расположение каналов : Front: L R
Частота : 48,0 КГц
Битовая глубина : 24 бит
Метод сжатия : С потерями
Размер потока : 351 Мбайт (4%)
Заголовок : DTS 2.0 (448 kbps) MVO
Язык : Russian
Default : Да
Forced : Да
Аудио #2
Идентификатор : 3
Формат : DTS
Формат/Информация : Digital Theater Systems
Режим : 16
Параметр Endianness формата : Big
Идентификатор кодека : A_DTS
Продолжительность : 1 ч. 49 м.
Вид битрейта : Постоянный
Битрейт : 1509 Кбит/сек
Каналы : 2 канала
Расположение каналов : Front: L R
Частота : 48,0 КГц
Битовая глубина : 24 бит
Метод сжатия : С потерями
Размер потока : 1,16 Гбайт (14%)
Язык : English
Default : Нет
Forced : Нет
Текст #1
Идентификатор : 4
Формат : UTF-8
Идентификатор кодека : S_TEXT/UTF8
Идентификатор кодека/Информация : UTF-8 Plain Text
Заголовок : Forced
Язык : Russian
Default : Да
Forced : Да
Текст #2
Идентификатор : 5
Формат : UTF-8
Идентификатор кодека : S_TEXT/UTF8
Идентификатор кодека/Информация : UTF-8 Plain Text
Язык : Russian
Default : Нет
Forced : Нет
Текст #3
Идентификатор : 6
Формат : UTF-8
Идентификатор кодека : S_TEXT/UTF8
Идентификатор кодека/Информация : UTF-8 Plain Text
Язык : English
Default : Нет
Forced : Нет
Текст #4
Идентификатор : 7
Формат : UTF-8
Идентификатор кодека : S_TEXT/UTF8
Идентификатор кодека/Информация : UTF-8 Plain Text
Заголовок : SDH
Язык : English
Default : Нет
Forced : Нет
Меню
00:00:00.000 : en:1. Pre-Release (Main Titles)
00:03:07.000 : en:2. Leaving Today
00:11:52.000 : en:3. Written Warning
00:15:51.000 : en:4. Never Shot a Man
00:18:18.000 : en:5. Real Trouble
00:23:38.000 : en:6. Bad Hombre
00:26:57.000 : en:7. Gettin' Gas
00:33:03.000 : en:8. Hold It
00:42:27.000 : en:9. Drive Thru
00:49:18.000 : en:10. Racked Up
00:58:26.000 : en:11. Sweet Talk
01:07:05.000 : en:12. Reserve Officers
01:13:18.000 : en:13. We Got 'Em
01:22:01.000 : en:14. Stopping for Supplies
01:27:30.000 : en:15. Innocent People
01:34:37.000 : en:16. This is Goodbye
01:39:58.000 : en:17. Don't Stop
01:47:23.000 : en:18. End Titles
-

_________________
Показать сообщения:    

Текущее время: Сегодня 19:30

Часовой пояс: GMT



Вы не можете начинать темы
Вы не можете отвечать на сообщения
Вы не можете редактировать свои сообщения
Вы не можете удалять свои сообщения
Вы не можете голосовать в опросах
Вы не можете прикреплять файлы к сообщениям
Вы не можете скачивать файлы