Важное объявление!
У Нас Все раздачи мультитрекерные, при нуле пиров в релизах, можете смело вставать на закачку!
 
Автор Сообщение

mihis

[Профиль] [ЛС]

Шугар Хилл / Sugar Hill
«He wanted power. He wanted revenge. Now he just wants out.»
Год выпуска: 1993
Страна: США, 20th Century Fox, South Street Films, Beacon Communications
Жанр: Триллер, драма
Продолжительность: 02:03:37
Перевод: Профессиональный (многоголосый закадровый)
Субтитры: нет
Режиссер: Леон Ичасо
В ролях: Уэсли Снайпс, Майкл Райт, Тереза Рэндл, Эйб Вигода, Кларенс Уильямс III, Стив Харрис, Кимберли Расселл, Рэймонд Серра, Вонди Куртис-Холл, Кэнди Александр, Фрэнк Феррара, Дьюли Хилл, Дональд Фэйсон, Лесли Уггэмс
Описание: Два брата- Ромело и Рэй -ведут преступный бизнес в Гарлеме, мстя обидчикам отца и отражая натиск конкурентов. Жестокая действительность — жестокие методы, но Ромело, сочетающий качества интеллектуала и супермена, пытается выйти из игры начать спокойную жизнь с красавицей Мелиссой…

Качество: DVDRip
Формат: AVI
Видео кодек: XviD
Аудио кодек: MP3
Видео: 688x528 (4:3), 25 fps, XviD ~ 1550 kbps avg, 0.171 bit/pixel
Аудио: 48 kHz, MP3, 2 ch, 128.00 kbps

MediaInfo

Общее
Полное имя : Shugar.Hill.1993.DVDRip_[Youtracker]_by_AVP Studio.avi
Формат : AVI
Формат/Информация : Audio Video Interleave
Размер файла : 1,46 Гбайт
Продолжительность : 2 ч. 3 м.
Общий поток : 1687 Кбит/сек
Программа кодирования : VirtualDubMod 1.5.10.3 | www.virtualdub-fr.org || (build 2550/release)
Библиотека кодирования : VirtualDubMod build 2550/release
Видео
Идентификатор : 0
Формат : MPEG-4 Visual
Профиль формата : Advanced Simple@L5
Параметр BVOP формата : 1
Параметр QPel формата : Нет
Параметр GMC формата : Без точки перехода
Параметр матрицы формата : Выборочная
Идентификатор кодека : XVID
Идентификатор кодека/Подсказка : XviD
Продолжительность : 2 ч. 3 м.
Битрейт : 1550 Кбит/сек
Ширина : 688 пикселей
Высота : 528 пикселей
Соотношение сторон : 4:3
Частота кадров : 25,000 кадров/сек
Цветовое пространство : YUV
Субдискретизация насыщенности : 4:2:0
Битовая глубина : 8 бит
Тип развёртки : Прогрессивная
Метод сжатия : С потерями
Бит/(Пиксели*Кадры) : 0.171
Размер потока : 1,34 Гбайт (92%)
Библиотека кодирования : XviD 65
Аудио
Идентификатор : 1
Формат : MPEG Audio
Версия формата : Version 1
Профиль формата : Layer 3
Идентификатор кодека : 55
Идентификатор кодека/Подсказка : MP3
Продолжительность : 2 ч. 3 м.
Вид битрейта : Постоянный
Битрейт : 128 Кбит/сек
Каналы : 2 канала
Частота : 48,0 КГц
Метод сжатия : С потерями
Размер потока : 113 Мбайт (8%)
Выравнивание : Соединение по промежуткам
Продолжительность промежутка : 40 мс. (1,00 видеокадр)
Время предзагрузки промежутка : 504 мс.
Библиотека кодирования : L3.99r
Настройки программы : -m s -V 4 -q 2 -lowpass 17 -b 128
 
Показать сообщения:    

Текущее время: Сегодня 17:28

Часовой пояс: GMT



Вы не можете начинать темы
Вы не можете отвечать на сообщения
Вы не можете редактировать свои сообщения
Вы не можете удалять свои сообщения
Вы не можете голосовать в опросах
Вы не можете прикреплять файлы к сообщениям
Вы не можете скачивать файлы