Важное объявление!
У Нас Все раздачи мультитрекерные, при нуле пиров в релизах, можете смело вставать на закачку!
 
Автор Сообщение

димитри37

Стаж:
3 года 8 месяцев
Сообщений:
1237

Репутация: 127

[+] [-]
Вне форума [Профиль] [ЛС]

Штурм Белого дома / White House Down-
Год выпуска: 2013
Выпущено: США / Centropolis Entertainment
Жанр: боевик, триллер
Продолжительность: 02:11:32
Перевод: Профессиональный (полное дублирование) BD EUR
Субтитры: нет-Режиссер:
Роланд Эммерих / Roland Emmerich-В ролях:
Ченнинг Татум (Cale), Джейми Фокс (President Sawyer), Мэгги Джилленхол (Finnerty), Джейсон Кларк (Stenz), Ричард Дженкинс (Raphelson), Джеймс Вудс (Walker), Джои Кинг (Emily), Николас Райт (Donnie the Guide), Джимми Симпсон (Tyler), Майкл Мерфи (Vice President Hammond), Рашель Лефевр (Melanie)-Описание:
Cотрудник госбезопасности приходит вместе с дочерью в Белый дом на собеседование на должность в структуру охраны президента. И именно в этот день Белый дом атакуют некие неопознанные вооружённые силы. Офицер проявляет чудеса находчивости и отваги, пытаясь спасти жизнь своему ребёнку, себе и президенту США.

Качество: BDRip [White_House_Down_BlueBird]
Формат: AVI
Видео: 720x304 (2.37:1), 23.976 fps, XviD build 73 ~1386 kbps avg, 0.26 bit/pixel
Аудио: 48 kHz, AC3 Dolby Digital, 2/0 (L,R) ch, ~192.00 kbps avg-

Скриншоты

MediaInfo

Код:
General
Complete name                            : D:\Shturm_Belogo_doma_2013_BDRip_by_Dalemake.avi
Format                                   : AVI
Format/Info                              : Audio Video Interleave
File size                                : 1.46 GiB
Duration                                 : 2h 11mn
Overall bit rate                         : 1 588 Kbps
Writing application                      : VirtualDubMod 1.5.10.3 | www.virtualdub-fr.org || (build 2550/release)
Writing library                          : VirtualDubMod build 2550/release
Video
ID                                       : 0
Format                                   : MPEG-4 Visual
Format profile                           : Advanced Simple@L5
Format settings, BVOP                    : 1
Format settings, QPel                    : No
Format settings, GMC                     : No warppoints
Format settings, Matrix                  : Custom
Codec ID                                 : XVID
Codec ID/Hint                            : XviD
Duration                                 : 2h 11mn
Bit rate                                 : 1 386 Kbps
Width                                    : 720 pixels
Height                                   : 304 pixels
Display aspect ratio                     : 2.35:1
Frame rate                               : 23.976 fps
Color space                              : YUV
Chroma subsampling                       : 4:2:0
Bit depth                                : 8 bits
Scan type                                : Progressive
Compression mode                         : Lossy
Bits/(Pixel*Frame)                       : 0.264
Stream size                              : 1.27 GiB (87%)
Writing library                          : XviD 73
Audio
ID                                       : 1
Format                                   : AC-3
Format/Info                              : Audio Coding 3
Mode extension                           : CM (complete main)
Format settings, Endianness              : Big
Codec ID                                 : 2000
Duration                                 : 2h 11mn
Bit rate mode                            : Constant
Bit rate                                 : 192 Kbps
Channel(s)                               : 2 channels
Channel positions                        : Front: L R
Sampling rate                            : 48.0 KHz
Bit depth                                : 16 bits
Compression mode                         : Lossy
Stream size                              : 181 MiB (12%)
Alignment                                : Split accross interleaves
Interleave, duration                     : 42 ms (1.00 video frame)
Interleave, preload duration             : 500 ms
-
Показать сообщения:    

Текущее время: Сегодня 18:56

Часовой пояс: GMT



Вы не можете начинать темы
Вы не можете отвечать на сообщения
Вы не можете редактировать свои сообщения
Вы не можете удалять свои сообщения
Вы не можете голосовать в опросах
Вы не можете прикреплять файлы к сообщениям
Вы не можете скачивать файлы