Важное объявление!
У Нас Все раздачи мультитрекерные, при нуле пиров в релизах, можете смело вставать на закачку!
 
Автор Сообщение

HUNTER

Стаж:
4 года 4 месяца
Сообщений:
56790

Репутация: 101

[+] [-]
Вне форума [Профиль] [ЛС]

Штормовое предупреждение / Storm Warning
«Остаться в живых - значит умереть...»
-
Страна: Австралия
Жанр: ужасы, триллер
Год выпуска: 2007
Продолжительность: 01:26:13-Перевод №1: Профессиональный (дублированный) - R5
Перевод №2: Одноголосый закадровый - Xixidok
Оригинальная аудиодорожка: English
Cубтитры: Русские (полные + форсированные), English (full + full SDH)
Навигация по главам: присутствует - 12 глав-Режиссер: Джэми Блэнкс / Jamie Blanks
В ролях: Надя Фарес, Роберт Тейлор, Дэвид Лайонс, Мэттью Уилкинсон, Джон Брамптон, Джонатан Олдхэм, Пюсс-Описание: Роб и Пиа, семейная пара, отправляются на лодочную прогулку и попадают в страшную бурю. Их лодка разбита, они выброшены в совершенно безлюдном и жутком месте, окруженном непроходимым лесом… В попытке спрятаться от бушующего дождя и ветра молодые люди находят, как им кажется, заброшенную ферму, в которой обнаруживают большое количество марихуаны. Теперь они понимают, что если вдруг объявится хозяин, им ничего хорошего не светит, но они и не предполагали, что за ужас их ждет.-
Download sample-Качество видео: BDRip 720p | исх. BDRemux 1080p - thx: Arifis
Формат: MKV-Видео: 1 280x720 (16:9), 23.976 fps, H.264, 9254.37 kb/s, 0.409 bit/pixel
Аудио №1: 48.0 kHz, DTS, 3/2 (L,C,R,l,r) + LFE ch, ~768 kbps avg | Профессиональный (дублированный) - R5
Аудио №2: 48.0 kHz, AC3 Dolby Digital, 2/0 (L,R), ~192.00 kbps avg | Одноголосый закадровый - Xixidok
Аудио №3: 48.0 kHz, AC3 Dolby Digital, 3/2 (L,C,R,l,r) + LFE ch, ~640 kbps avg | English
Субтитры №1: Русские (полные) | *.srt
Субтитры №2: Русские (форсированные) | *.srt
Субтитры №3: English (full) | *.srt
Субтитры №4: English (full SDH) | *.srt-

MediaInfo

General
Unique ID : 197137688024200556909755751475772909453 (0x944F56707279E27C8B71C230F57FE78D)
Complete name : D:\Фильмы\Рипы\Storm Warning.2007.BDRip 720p.eFK tRuAVC.mkv
Format : Matroska
Format version : Version 4 / Version 2
File size : 6.54 GiB
Duration : 1h 26mn
Overall bit rate : 10.9 Mbps
Movie name : Штормовое предупреждение / Storm Warning (2007) - Release for rutracker
Encoded date : UTC 2015-12-14 08:49:47
Writing application : mkvmerge v7.6.0 ('Garden of Dreams') 64bit built on Feb 8 2015 13:04:34
Writing library : libebml v1.3.1 + libmatroska v1.4.2
Attachements : cover.png
DURATION : 01:26:13.952000000
NUMBER_OF_FRAMES : 161686
NUMBER_OF_BYTES : 413916160
_STATISTICS_WRITING_APP : mkvmerge v7.6.0 ('Garden of Dreams') 64bit built on Feb 8 2015 13:04:34
_STATISTICS_WRITING_DATE_UT : 2015-12-14 08:49:47
_STATISTICS_TAGS : BPS DURATION NUMBER_OF_FRAMES NUMBER_OF_BYTES
Video
ID : 1
Format : AVC
Format/Info : Advanced Video Codec
Format profile : High@L4.1
Format settings, CABAC : Yes
Format settings, ReFrames : 8 frames
Codec ID : V_MPEG4/ISO/AVC
Duration : 1h 26mn
Bit rate : 9 044 Kbps
Width : 1 280 pixels
Height : 720 pixels
Display aspect ratio : 16:9
Frame rate mode : Constant
Frame rate : 23.976 fps
Color space : YUV
Chroma subsampling : 4:2:0
Bit depth : 8 bits
Scan type : Progressive
Bits/(Pixel*Frame) : 0.409
Stream size : 5.45 GiB (83%)
Title : eFK tRuAVC
Writing library : x264 core 148 r2638kMod 7599210
Encoding settings : cabac=1 / ref=8 / deblock=1:-3:-3 / analyse=0x3:0x113 / me=umh / subme=11 / psy=1 / fade_compensate=0.00 / psy_rd=0.95:0.03 / mixed_ref=1 / me_range=48 / chroma_me=1 / trellis=2 / 8x8dct=1 / cqm=0 / deadzone=21,11 / fast_pskip=0 / chroma_qp_offset=-3 / threads=12 / lookahead_threads=3 / sliced_threads=0 / nr=0 / decimate=1 / interlaced=0 / bluray_compat=0 / constrained_intra=0 / fgo=0 / bframes=16 / b_pyramid=2 / b_adapt=2 / b_bias=0 / direct=3 / weightb=1 / open_gop=0 / weightp=2 / keyint=250 / keyint_min=23 / scenecut=40 / intra_refresh=0 / rc_lookahead=60 / rc=crf / mbtree=0 / crf=17.5000 / qcomp=0.70 / qpmin=0 / qpmax=69 / qpstep=4 / vbv_maxrate=62500 / vbv_bufsize=78125 / crf_max=0.0 / nal_hrd=none / filler=0 / ip_ratio=1.40 / pb_ratio=1.30 / aq=1:0.85
Language : English
Default : Yes
Forced : No
Color range : Limited
Color primaries : BT.709
Transfer characteristics : BT.709
Matrix coefficients : BT.709
DURATION : 01:26:13.919000000
NUMBER_OF_FRAMES : 124050
NUMBER_OF_BYTES : 5985169933
_STATISTICS_WRITING_APP : mkvmerge v7.6.0 ('Garden of Dreams') 64bit built on Feb 8 2015 13:04:34
_STATISTICS_WRITING_DATE_UT : 2015-12-14 08:49:47
_STATISTICS_TAGS : BPS DURATION NUMBER_OF_FRAMES NUMBER_OF_BYTES
Audio #1
ID : 2
Format : DTS
Format/Info : Digital Theater Systems
Mode : 16
Format settings, Endianness : Big
Codec ID : A_DTS
Duration : 1h 26mn
Bit rate mode : Constant
Bit rate : 768 Kbps
Channel(s) : 6 channels
Channel positions : Front: L C R, Side: L R, LFE
Sampling rate : 48.0 KHz
Bit depth : 24 bits
Compression mode : Lossy
Stream size : 474 MiB (7%)
Title : Профессиональный (дублированный) - R5
Language : Russian
Default : Yes
Forced : No
Audio #2
ID : 3
Format : AC-3
Format/Info : Audio Coding 3
Mode extension : CM (complete main)
Format settings, Endianness : Big
Codec ID : A_AC3
Duration : 1h 26mn
Bit rate mode : Constant
Bit rate : 192 Kbps
Channel(s) : 2 channels
Channel positions : Front: L R
Sampling rate : 48.0 KHz
Compression mode : Lossy
Stream size : 118 MiB (2%)
Title : Одноголосый закадровый - Xixidok
Language : Russian
Default : No
Forced : No
Audio #3
ID : 4
Format : AC-3
Format/Info : Audio Coding 3
Mode extension : CM (complete main)
Format settings, Endianness : Big
Codec ID : A_AC3
Duration : 1h 26mn
Bit rate mode : Constant
Bit rate : 640 Kbps
Channel(s) : 6 channels
Channel positions : Front: L C R, Side: L R, LFE
Sampling rate : 48.0 KHz
Compression mode : Lossy
Stream size : 395 MiB (6%)
Language : English
Default : No
Forced : No
Text #1
ID : 5
Format : UTF-8
Codec ID : S_TEXT/UTF8
Codec ID/Info : UTF-8 Plain Text
Title : форсированные
Language : Russian
Default : Yes
Forced : No
Text #2
ID : 6
Format : UTF-8
Codec ID : S_TEXT/UTF8
Codec ID/Info : UTF-8 Plain Text
Title : полные
Language : Russian
Default : No
Forced : No
Text #3
ID : 7
Format : UTF-8
Codec ID : S_TEXT/UTF8
Codec ID/Info : UTF-8 Plain Text
Title : full
Language : English
Default : No
Forced : No
Text #4
ID : 8
Format : UTF-8
Codec ID : S_TEXT/UTF8
Codec ID/Info : UTF-8 Plain Text
Title : full SDH
Language : English
Default : No
Forced : No
Menu
00:00:00.000 : :Chapter 01
00:05:45.568 : :Chapter 02
00:14:46.000 : :Chapter 03
00:22:02.000 : :Chapter 04
00:29:56.768 : :Chapter 05
00:39:40.559 : :Chapter 06
00:48:33.000 : :Chapter 07
00:55:00.520 : :Chapter 08
01:04:12.113 : :Chapter 09
01:10:28.000 : :Chapter 10
01:19:31.000 : :Chapter 11
01:23:43.158 : :Chapter 12

x264 log

x264 [info]: frame I:826 Avg QP:16.23 size:138987
x264 [info]: frame P:26844 Avg QP:17.75 size: 80814
x264 [info]: frame B:96380 Avg QP:19.94 size: 38400
x264 [info]: consecutive B-frames: 2.7% 2.8% 4.9% 18.9% 14.6% 46.7% 4.0% 2.6% 0.7% 0.8% 0.2% 0.4% 0.1% 0.1% 0.1% 0.1% 0.2%
x264 [info]: mb I I16..4: 7.2% 83.9% 9.0%
x264 [info]: mb P I16..4: 0.6% 36.5% 1.7% P16..4: 19.8% 27.0% 10.7% 0.0% 0.0% skip: 3.8%
x264 [info]: mb B I16..4: 0.0% 5.0% 0.2% B16..8: 37.5% 25.1% 5.5% direct:11.0% skip:15.7% L0:44.1% L1:42.5% BI:13.4%
x264 [info]: 8x8 transform intra:94.1% inter:58.4%
x264 [info]: direct mvs spatial:99.9% temporal:0.1%
x264 [info]: coded y,uvDC,uvAC intra: 97.9% 88.0% 74.3% inter: 54.5% 32.4% 5.6%
x264 [info]: i16 v,h,dc,p: 34% 9% 13% 45%
x264 [info]: i8 v,h,dc,ddl,ddr,vr,hd,vl,hu: 8% 8% 13% 9% 12% 12% 12% 11% 13%
x264 [info]: i4 v,h,dc,ddl,ddr,vr,hd,vl,hu: 7% 9% 5% 9% 15% 14% 14% 12% 15%
x264 [info]: i8c dc,h,v,p: 48% 23% 16% 12%
x264 [info]: Weighted P-Frames: Y:10.3% UV:6.6%
x264 [info]: ref P L0: 40.0% 9.8% 19.1% 9.1% 7.4% 5.6% 5.0% 3.3% 0.6% 0.1%
x264 [info]: ref B L0: 73.2% 11.9% 6.3% 3.6% 2.7% 1.5% 0.7%
x264 [info]: ref B L1: 93.1% 6.9%
x264 [info]: kb/s:9254.37
x264 [total]: encoded 124050 frames, 6.03 fps, 9254.37 kb/s, duration 6:50:40.48

Comparison

Source

Encode
Цитата:
Цитата:

  • Версия с ДВД имеет R-Rated версию, на Blu-Ray'е - Unrated. Для синхронизации использовались вставки из оригинала.
  • Дорожка №1 содержит в различных местах в конце - места без перевода (14 фраз, переведены субтитрами (включены по умолчанию).
  • На места без перевода были созданы форсированные сабы, по переводу Хихидока. Полные взяты из сети.

_________________
Показать сообщения:    

Текущее время: Сегодня 10:16

Часовой пояс: GMT



Вы не можете начинать темы
Вы не можете отвечать на сообщения
Вы не можете редактировать свои сообщения
Вы не можете удалять свои сообщения
Вы не можете голосовать в опросах
Вы не можете прикреплять файлы к сообщениям
Вы не можете скачивать файлы