Важное объявление!
У Нас Все раздачи мультитрекерные, при нуле пиров в релизах, можете смело вставать на закачку!
 
Автор Сообщение

HUNTER

Стаж:
4 года 4 месяца
Сообщений:
56853

Репутация: 101

[+] [-]
Вне форума [Профиль] [ЛС]

Шрек 2 / Shrek 2
Год выпуска: 2004
Страна: США
Жанр: мультфильм, фэнтези, комедия, приключения, семейны
Продолжительность: 01:32:23
Перевод: Профессиональный (двухголосый закадровый) - Фрегат Видео
Перевод 2: Профессиональный (двухголосый закадровый)
Русские субтитры: нет
Режиссёр: Эндрю Адамсон / Andrew Adamson, Келли Эсбёри / Kelly Asbury, Конрад Вернон / Conrad Vernon
Роли озвучивали: Майк Майерс (Shrek), Эдди Мёрфи (Donkey), Кэмерон Диаз (Princess Fiona), Джули Эндрюс (Queen), Антонио Бандерас (Puss In Boots), Джон Клиз (King), Руперт Эверетт (Prince Charming), Дженнифер Сондерс (Fairy Godmother), Арон Уорнер (Wolf), Келли Эсбёри (Page / Elf / Nobleman / Nobleman's Son)-Мировая премьера: 15 мая 2004-Описание: Шрэк и Фиона возвращаются после медового месяца и находят письмо от родителей Фионы с приглашением на ужин. Однако те не подозревают, что их дочь тоже стала огром! Вместе с Осликом счастливая пара отправляется в путешествие, полное неожиданностей, и попадает в круговорот событий, во время которых приобретает множество друзей…-Доп. информация:
Исходник видео - BDRip от HQCLUB с рутора.
За оцифровку перевода со своей личной видеокассеты от пиратской видео-компании Фрегат Видео большое спасибо RockNIK.
За оцифровку второго двухголосого перевода со своей личной видеокассеты от какой-то пиратской видео-компании большое спасибо серый75.
Синхронизация переводов - JUSTKANT.-Данные переводы на трекере появляются впервые.--> Первый "Шрек" с авторским переводом Андрея Дольского.-

MPAA: PG - Рекомендуется присутствие родителей.-Качество: BDRip
Формат: AVI -> //SAMPLE//
Видео: XviD, 720x400 (16:9), 23.976 fps, 1794 kbps avg
Аудио:
1 - 48 khz, AC3 Dolby Digital, 2/0 (L,R) ch, ~192 kbps [Фрегат Видео] VHSRip
2 - 48 khz, AC3 Dolby Digital, 2/0 (L,R) ch, ~192 kbps [DVO] VHSRip

Подробные технические данные

GeneralComplete name : D:\Релизы на Трекере\Шрек 2 (Фрегат Видео + DVO).aviFormat : AVIFormat/Info : Audio Video InterleaveFile size : 1.41 GiBDuration : 1h 32mnOverall bit rate : 2 192 KbpsWriting application : VirtualDubMod 1.5.10.3 (build 2550/release)Writing library : VirtualDubMod build 2550/release
VideoID : 0Format : MPEG-4 VisualFormat profile : Advanced Simple@L5Format settings, BVOP : 1Format settings, QPel : NoFormat settings, GMC : No warppointsFormat settings, Matrix : Default (MPEG)Codec ID : XVIDCodec ID/Hint : XviDDuration : 1h 32mnBit rate : 1 794 KbpsWidth : 720 pixelsHeight : 400 pixelsDisplay aspect ratio : 16:9Frame rate : 23.976 fpsColor space : YUVChroma subsampling : 4:2:0Bit depth : 8 bitsScan type : ProgressiveCompression mode : LossyBits/(Pixel*Frame) : 0.260Stream size : 1.16 GiB (82%)Writing library : XviD 1.2.1 (UTC 2008-12-04)
Audio #1ID : 1Format : AC-3Format/Info : Audio Coding 3Mode extension : CM (complete main)Format settings, Endianness : BigCodec ID : 2000Duration : 1h 32mnBit rate mode : ConstantBit rate : 192 KbpsChannel(s) : 2 channelsChannel positions : Front: L RSampling rate : 48.0 KHzCompression mode : LossyStream size : 127 MiB (9%)Alignment : Split accross interleavesInterleave, duration : 42 ms (1.00 video frame)Interleave, preload duratio : 500 ms
Audio #2ID : 2Format : AC-3Format/Info : Audio Coding 3Mode extension : CM (complete main)Format settings, Endianness : BigCodec ID : 2000Duration : 1h 32mnBit rate mode : ConstantBit rate : 192 KbpsChannel(s) : 2 channelsChannel positions : Front: L RSampling rate : 48.0 KHzCompression mode : LossyStream size : 127 MiB (9%)Alignment : Split accross interleavesInterleave, duration : 42 ms (1.00 video frame)Interleave, preload duratio : 500 ms

Скриншоты


_________________
Показать сообщения:    

Текущее время: Сегодня 11:56

Часовой пояс: GMT



Вы не можете начинать темы
Вы не можете отвечать на сообщения
Вы не можете редактировать свои сообщения
Вы не можете удалять свои сообщения
Вы не можете голосовать в опросах
Вы не можете прикреплять файлы к сообщениям
Вы не можете скачивать файлы
Наши партнеры: интернет магазин Ивановского трикотажа textilla.ru