Важное объявление!
У Нас Все раздачи мультитрекерные, при нуле пиров в релизах, можете смело вставать на закачку!
 
Автор Сообщение

HUNTER

Стаж:
4 года 4 месяца
Сообщений:
56720

Репутация: 101

[+] [-]
Вне форума [Профиль] [ЛС]

Школьные узы / School Ties
Страна: США
Жанр: драма
Год выпуска: 1992
Продолжительность: 01:47:17
Перевод: Профессиональный (двухголосый закадровый) Премьер Мультимедиа?
Cубтитры: русские, английские
Оригинальная аудиодорожка: английский
Режиссер: Роберт Мэндел / Robert Mandel
В ролях: Брендан Фрейзер, Мэтт Дэймон, Крис О’Доннелл, Рэндолл Батинкофф, Эндрю Лоури, Коул Хаузер, Бен Аффлек, Энтони Рэпп, Эми Локейн, Питер Донат...
Описание: Для героя этой картины, молодого человека по имени Дэйвид Грин, попасть в самый престижный колледж в Америке было чем-то из области фантастики. В стенах этого уважаемого учебного заведения из поколения в поколение получали образование дети аристократов и отпрыски богатейших семейств Америки.
Но Дэйвиду повезло: для него — простолюдина и выходца из глубокой провинции, впервые было сделано исключение. Его приняли в колледж и открыли заветную дорогу в Гарвардский университет. Теперь Грину нужно было совершить невозможное: доказать, что он достоин оказанной ему чести. Но у Дэйвида была одна тайна, тайна, которая в середине пятидесятых годов прошлого века могла изменить и обрушить всё.
И когда эта тайна, к несчастью, стала достоянием гласности, герою пришлось вступить в тяжелое противостояние со всеми, кого он считал своими друзьями.
Доп. информация: Перевод и русские субтитры с раздачи TFloater.
Сэмпл: http://multi-up.com/1055758
Тип релиза: WEB-DL 720p
Контейнер: MKV
Видео: 1280x718 (16:9), 23.976 fps, AVC, ~4055 Kbps, 0.184 bits/pixel
Аудио 1: Russian, 48.0 KHz, AC3, 2 ch, 192 Kbps
Аудио 2: English, 48.0 KHz, AC3, 6 ch, 384 Kbps

MediaInfo

General
Unique ID : 229791051381284680043437439303676356230 (0xACE0258CDE87515DB6A18BA3BD386686)
Complete name : D:\School Ties. WEB-DL 720p.mkv
Format : Matroska
Format version : Version 4 / Version 2
File size : 3.54 GiB
Duration : 1h 47mn
Overall bit rate : 4 725 Kbps
Movie name :
Encoded date : UTC 2015-06-23 21:17:45
Writing application : mkvmerge v8.0.0 ('Til The Day That I Die') 64bit
Writing library : libebml v1.3.1 + libmatroska v1.4.2
DURATION : 01:40:44.680000000
NUMBER_OF_FRAMES : 911
NUMBER_OF_BYTES : 36677
_STATISTICS_WRITING_APP : mkvmerge v8.0.0 ('Til The Day That I Die') 64bit
_STATISTICS_WRITING_DATE_UT : 2015-06-23 21:17:45
_STATISTICS_TAGS : BPS DURATION NUMBER_OF_FRAMES NUMBER_OF_BYTES
Video
ID : 1
Format : AVC
Format/Info : Advanced Video Codec
Format profile : High@L3.1
Format settings, CABAC : No
Format settings, ReFrames : 2 frames
Codec ID : V_MPEG4/ISO/AVC
Duration : 1h 47mn
Bit rate : 4 055 Kbps
Width : 1 280 pixels
Height : 718 pixels
Display aspect ratio : 16:9
Frame rate mode : Constant
Frame rate : 23.976 fps
Color space : YUV
Chroma subsampling : 4:2:0
Bit depth : 8 bits
Scan type : Progressive
Bits/(Pixel*Frame) : 0.184
Stream size : 3.04 GiB (86%)
Language : English
Default : Yes
Forced : No
Color range : Limited
Color primaries : BT.709
Transfer characteristics : BT.709
Matrix coefficients : BT.709
Audio #1
ID : 2
Format : AC-3
Format/Info : Audio Coding 3
Mode extension : CM (complete main)
Format settings, Endianness : Big
Codec ID : A_AC3
Duration : 1h 47mn
Bit rate mode : Constant
Bit rate : 192 Kbps
Channel(s) : 2 channels
Channel positions : Front: L R
Sampling rate : 48.0 KHz
Compression mode : Lossy
Stream size : 147 MiB (4%)
Language : Russian
Default : Yes
Forced : No
Audio #2
ID : 3
Format : AC-3
Format/Info : Audio Coding 3
Mode extension : CM (complete main)
Format settings, Endianness : Big
Codec ID : A_AC3
Duration : 1h 47mn
Bit rate mode : Constant
Bit rate : 384 Kbps
Channel(s) : 6 channels
Channel positions : Front: L C R, Side: L R, LFE
Sampling rate : 48.0 KHz
Compression mode : Lossy
Stream size : 295 MiB (8%)
Language : English
Default : No
Forced : No
Text #1
ID : 4
Format : UTF-8
Codec ID : S_TEXT/UTF8
Codec ID/Info : UTF-8 Plain Text
Language : Russian
Default : No
Forced : No
Text #2
ID : 5
Format : UTF-8
Codec ID : S_TEXT/UTF8
Codec ID/Info : UTF-8 Plain Text
Language : English
Default : No
Forced : No
Menu
00:00:00.000 : en:Good-byes
00:09:16.000 : en:Welcome to St. Matthews
00:19:27.000 : en:Mr. Cleary
00:25:31.000 : en:New Face On The Varsity
00:31:08.000 : en:Breaking Traditions
00:33:24.000 : en:Sink Or Swim
00:35:29.000 : en:Sally Wheeler
00:43:39.000 : en:Au revoir McGivern
00:53:30.000 : en:Payback
00:55:42.000 : en:Secret Weapon
01:04:01.000 : en:Great White Hope
01:10:12.000 : en:The Joke
01:16:33.000 : en:"Cowards"
01:19:23.000 : en:The One Important Thing
01:23:02.000 : en:Honor Code
01:32:27.000 : en:Tribunal
01:40:18.000 : en:Confession

Скриншоты


_________________
Показать сообщения:    

Текущее время: Сегодня 07:22

Часовой пояс: GMT



Вы не можете начинать темы
Вы не можете отвечать на сообщения
Вы не можете редактировать свои сообщения
Вы не можете удалять свои сообщения
Вы не можете голосовать в опросах
Вы не можете прикреплять файлы к сообщениям
Вы не можете скачивать файлы