Важное объявление!
У Нас Все раздачи мультитрекерные, при нуле пиров в релизах, можете смело вставать на закачку!
 
Автор Сообщение

HUNTER

Стаж:
4 года 4 месяца
Сообщений:
56719

Репутация: 101

[+] [-]
Вне форума [Профиль] [ЛС]

-
Год выпуска: 2013
Страна: Япония
Жанр: комедия, этти, пародия, школа
Продолжительность: 10 эп. по 24 мин.
Выпуск: c 10.10.2013 по 12.12.2013-Перевод:
  • русские субтитры от Sa4ko aka Kiyoso & Zenobian (полные/вспомогательные)
-Режиссер: Инагаки Такаюки
Студия: Studio Barcelona-Описание:
Когда ты слышишь голоса – это диагноз. Когда на мобильник звонит Бог – это состояние души. 17-летний Канадэ Амакуса знает, что болен на всю голову, ибо неведомые силы постоянно ставят его перед выбором один хуже другого: например, прилюдно захрюкать свиньей или пойти убиться об стену. Отказ или промедление влекут нестерпимую боль, так что парень давно сдался. Даже регулярно выбираемое меньшее зло принесло Амакусе репутацию отмороженного психа, и лишь одноклассницы Ока и Фурано считают Канадэ своим другом – ибо настоящий мужик в их понимании однозначно должен быть веселым оригиналом и немного извращенцем!
Канадэ давно вылетел бы из школы, если бы его не прикрывала таинственная лоли-сэнсэй Утагэ-тян. Но даже ее возможностей надолго не хватило, и тогда в дело вмешался Бог. Для начала Ками-сама отправил в помощь страдальцу симпатичную блондинку-сладкоежку, а потом начал лично ставить задачи, решив которые до конца, парень избавится от проклятия. Но вот толку от посланницы, получившей имя Шоколад, маловато, а выполнять задания невозможно из-за постоянных «приходов». В общем, Амакусу явно ждет аналог Двенадцати подвигов Геракла, только тот с гидрами всякими боролся, а тут придется с самим собой!
© Hollow, World Art
Дословный перевод названия сериала «Что ни выбирай, а школьной романтической комедии уже не видать».
Напарницу главного героя не зря зовут Шоколад, ведь его фамилия Амакуса тоже значит «сладкая трава».-Информационные ссылки: AniDB || World Art || MAL-Качество: BDRip
Энкод: Winter - RG Pantheon
Тип видео: без хардсаба, без линковки
Формат: mkv
Видео: x264 (Hi10p), 1280x720, ~3500 Kbps, 23.976 fps
Аудио JAP: Vorbis, 48000Hz, ~256 Kbps, 2ch-

Список эпизодов

01. That Choice Put My Life in Motion
02. Secret Technique! Make Them Laugh with a Butakku Joke! / Objection! Butakku Trial

Скриншоты


Подробные тех. данные

Общее
Уникальный идентификатор : 189240571232968394573560777339957684175 (0x8E5E68853CF3AA0F95FA3613175827CF)
Полное имя : Z:\Anime\720p\NouCome [BD] [720p]\[Winter] NouCome 01 [BDrip 1280x720 x264 Vorbis].mkv
Формат : Matroska
Версия формата : Version 2
Размер файла : 674 Мбайт
Продолжительность : 24 м.
Режим общего битрейта : Переменный
Общий поток : 3826 Кбит/сек
Дата кодирования : UTC 2014-02-17 05:07:05
Программа кодирования : mkvmerge v2.9.8 ('C'est le bon') built on Aug 13 2009 12:49:06
Библиотека кодирования : libebml v0.7.7 + libmatroska v0.8.1
Видео
Идентификатор : 1
Формат : AVC
Формат/Информация : Advanced Video Codec
Профиль формата : High 10@L4.1
Параметр CABAC формата : Да
Параметр ReFrames формата : 9 кадров
Идентификатор кодека : V_MPEG4/ISO/AVC
Продолжительность : 24 м.
Битрейт : 3494 Кбит/сек
Ширина : 1280 пикселей
Высота : 720 пикселей
Соотношение сторон : 16:9
Режим частоты кадров : Постоянный
Частота кадров : 23,976 кадра/сек
Цветовое пространство : YUV
Субдискретизация насыщенности : 4:2:0
Битовая глубина : 10 бит
Тип развёртки : Прогрессивная
Бит/(Пиксели*Кадры) : 0.158
Размер потока : 615 Мбайт (91%)
Библиотека кодирования : x264 core 132 r2309 3b1f1f7
Настройки программы : cabac=1 / ref=9 / deblock=1:-2:-2 / analyse=0x3:0x133 / me=umh / subme=9 / psy=1 / psy_rd=0.90:0.00 / mixed_ref=1 / me_range=24 / chroma_me=1 / trellis=2 / 8x8dct=1 / cqm=0 / deadzone=21,11 / fast_pskip=1 / chroma_qp_offset=-2 / threads=12 / lookahead_threads=2 / sliced_threads=0 / nr=0 / decimate=0 / interlaced=0 / bluray_compat=0 / constrained_intra=0 / bframes=8 / b_pyramid=2 / b_adapt=2 / b_bias=0 / direct=1 / weightb=1 / open_gop=0 / weightp=2 / keyint=250 / keyint_min=23 / scenecut=40 / intra_refresh=0 / rc=crf / mbtree=0 / crf=15.8 / qcomp=0.70 / qpmin=9 / qpmax=40 / qpstep=4 / ip_ratio=1.40 / pb_ratio=1.30 / aq=1:0.90 / zones=4444,6353,b=1.3/8377,8461,b=1.2/31342,31867,b=1.4
Default : Нет
Forced : Нет
Аудио
Идентификатор : 2
Формат : Vorbis
Параметр Floor формата : 1
Идентификатор кодека : A_VORBIS
Продолжительность : 24 м.
Вид битрейта : Переменный
Битрейт : 256 Кбит/сек
Каналы : 2 канала
Частота : 48,0 КГц
Метод сжатия : С потерями
Размер потока : 45,1 Мбайт (7%)
Библиотека кодирования : libVorbis (Schaufenugget) (20101101 (Schaufenugget))
Язык : Japanese
Default : Да
Forced : Нет
- -

Информация о релизе

  • Выбор видео, перевода, озвучки, а также типа сборки материала осуществляется релизером и не подлежит обсуждению. Если вы считаете, что раздаваемый материал противоречит правилам раздела "Аниме" rutracker.org, сообщите об этом одному из модераторов раздела.
  • В случае появления нового материала или же лучшего по качеству материала релизер оставляет за собой право обновить раздачу. В этом случае вам необходимо ознакомиться с изменениями (добавлениями) и перекачать торрент.
  • Данный релиз предназначен для просмотра на ПК. Воспроизведение на иных проигрывателях не гарантируется. Для просмотра рекомендуется Media Player Classic с установленным пакетом кодеков K-Lite.
  • Данный релиз содержит 10-битное видео (Hi10p). Для корректного воспроизведения обязательно используйте кодеки, поддерживающие 10-битное видео.
    Обсудить частные случаи проблем с воспроизведением и получить дополнительную информацию можно здесь.

  • Данный релиз предназначен для просмотра с внешними субтитрами и внешними звуковыми дорожками.
    • Для просмотра с внешней звуковой дорожкой нужно:
      перекинуть файлы .mka из папки "RUS Sound [<автор(ы) озвучки>]" в одну папку с видео и переключить звуковую дорожку в плеере при просмотре. Как это сделать в разных плеерах подробно описано здесь.

    • Для просмотра с субтитрами нужно:
      перекинуть файлы .ass из папки "RUS Subtitles [<автор(ы) перевода>]" в одну папку с видео - плеер подгрузит их автоматически при открытии видео.
  • Если у вас возникли проблемы с просмотром, не связанные с описанным выше, сообщите о них автору раздачи посредством сообщения в теме или ЛС Aglenn.

_________________
Показать сообщения:    

Текущее время: Сегодня 22:48

Часовой пояс: GMT



Вы не можете начинать темы
Вы не можете отвечать на сообщения
Вы не можете редактировать свои сообщения
Вы не можете удалять свои сообщения
Вы не можете голосовать в опросах
Вы не можете прикреплять файлы к сообщениям
Вы не можете скачивать файлы