Важное объявление!
У Нас Все раздачи мультитрекерные, при нуле пиров в релизах, можете смело вставать на закачку!
 
Автор Сообщение

HUNTER

Стаж:
4 года 4 месяца
Сообщений:
56755

Репутация: 101

[+] [-]
Вне форума [Профиль] [ЛС]

Школа Эвер Афтер. Дорога в Страну Чудес . Часть 1 из 4 / Ever After High. Way Too Wonderland
Год выпуска: 2015
Страна: США
Жанр: фэнтези, комедия
Продолжительность: 00:22:16
Перевод: Профессиональный (дублированный)
Русские субтитры: нет
Режиссёр: Майк Цанеска / Mike Csunyoscka
Описание: Случилась страшная беда, мама Лиззи Хартс, Червовая дама попала в опасность. Жители страны чудес сговорились и решили скинуть с престола свою королеву. Как быть, чем я могу помочь своей любимой мамочке, подумала Лиззи! Надо немедленно отправляться в путешествие и разбираться в сложившихся обстоятельствах.
Интересно, смогут ли несколько совсем юных учениц Школы Эвер Афтер спасти королеву? Какие испытания придется пройти девчонкам, с кем сражаться и где добиваться правды?
Доп. информация:

Релиз группы:
Семпл: https://yadi.sk/i/ZH1v0X9kj2u7E
Качество видео: DVB
Формат видео: MPEG-TS
Видео: MPEG4 Video (H264), 720x576@785x576 (4:3), анаморф, 25 fps, 2200 kbps
Аудио: MPEG Audio, 2 сh, 48 kHz, 192 kbps

MediaInfo

General
ID : 1 (0x1)
Complete name : D:\Школа Эвер Афтер. Дорога в Страну Чудес. (2015)\1с. Дорога в Страну Чудес.ts
Format : MPEG-TS
File size : 405 MiB
Duration : 22mn 16s
Overall bit rate mode : Variable
Overall bit rate : 2 540 Kbps
Video
ID : 2564 (0xA04)
Menu ID : 1 (0x1)
Format : AVC
Format/Info : Advanced Video Codec
Format profile : Main@L3.0
Format settings, CABAC : Yes
Format settings, ReFrames : 4 frames
Format settings, GOP : M=8, N=24
Codec ID : 27
Duration : 22mn 16s
Bit rate : 2 220 Kbps
Width : 720 pixels
Height : 576 pixels
Display aspect ratio : 4:3
Frame rate : 25.000 fps
Standard : PAL
Color space : YUV
Chroma subsampling : 4:2:0
Bit depth : 8 bits
Scan type : MBAFF
Scan order : Top Field First
Bits/(Pixel*Frame) : 0.214
Stream size : 354 MiB (87%)
Color primaries : BT.601 PAL
Transfer characteristics : BT.470 System B, BT.470 System G
Matrix coefficients : BT.601
Color range : Limited
Audio
ID : 3564 (0xDEC)
Menu ID : 1 (0x1)
Format : MPEG Audio
Format version : Version 1
Format profile : Layer 2
Codec ID : 3
Duration : 22mn 16s
Bit rate mode : Constant
Bit rate : 192 Kbps
Channel(s) : 2 channels
Sampling rate : 48.0 KHz
Compression mode : Lossy
Stream size : 30.6 MiB (8%)
Language : Russian

Скриншоты


Ever After High™ (Official Video) - Music Video (Soundtrack)
http://www.youtube.com/watch?v=Hx_bBlltk10
Ever After High™
♫♫♫
Ooooooooooh!
They told you everything was waiting for you,
They told you everything was set in stone,
But now you're feeling like a different ending,
Sometimes you gotta find it on your own.
It's an open book,
A road in reverse,
A brand new hook,
Forget that curse!
It's a Rebel cause,
With a Royal heart,
Rewrite, ignite, restart!
Cause it's your life,
It's your time,
Go forward or rewind!
Cause you're a Royal,
You're a Rebel,
You're more than one together,
However you go Ever in Ever After High,
Royal and Rebel,
You're more than one together...
♫♫♫

_________________
Показать сообщения:    

Текущее время: Сегодня 17:37

Часовой пояс: GMT



Вы не можете начинать темы
Вы не можете отвечать на сообщения
Вы не можете редактировать свои сообщения
Вы не можете удалять свои сообщения
Вы не можете голосовать в опросах
Вы не можете прикреплять файлы к сообщениям
Вы не можете скачивать файлы