Важное объявление!
У Нас Все раздачи мультитрекерные, при нуле пиров в релизах, можете смело вставать на закачку!
 
Автор Сообщение

HUNTER

Стаж:
4 года 4 месяца
Сообщений:
56783

Репутация: 101

[+] [-]
Вне форума [Профиль] [ЛС]

Школа танца / Дискотека / School Dance-
Страна: США
Жанр: комедия
Год выпуска: 2014
Продолжительность: 01:26:08
Перевод: Одноголосый закадровый (Виктор Береговых)
Cубтитры: английские
Оригинальная аудиодорожка: английский-Режиссер: Ник Кэннон / Nick Cannon
В ролях: Бобби Дж. Томпсон, Луэнелль, Майк Эппс, Джордж Лопес, Кэт Уильямс, Уилмер Вальдеррама, Dashawn Blanks, Лэнгстон Хиггинс, Джулиан Гойнс,
Кристиния Дебардж-Описание: Джейсон обычный неудачник,на которого не обращают внимание девушки.Еще с раннего детства Джейсон влюблен в Анастейшу, самую красивую девушку школы, но та не замечает его. Близится ежегодная дискотека, на которой лучшие танцевальные коллективы школы выявят победителя и разыграют приз в 2000 долларов. И единственный шанс Джейсона привлечь к себе внимание Анастейши, выиграть конкурс, да к тому же деньги тоже вовсе не лишние. Отец Дэй Дэя, кузена Джейсона, проигрался в тюрьме и спихнул свой долг на сына и теперь на Дэй Дэя наезжают бандиты...(В.Береговых)-Доп. информация: Озвучка Виктор Береговых по переводу Михаила Васильева.-
-Качество видео: WEB-DL 720p
Формат видео: MKV
Видео: AVC, 1280x718, 3885 Kbps, 23.976 fps
Аудио 1: AC3, 192 Kbps, 2.0 channels, 48000 Hz - RUS VO
Аудио 2: AC3, 384 Kbps, 5.1 channels, 48000 Hz - ENG
Формат субтитров: softsub (SRT)-

Скриншоты


Резервные скриншоты


MediaInfo

Format : Matroska
Format version : Version 4 / Version 2
File size : 2.74 GiB
Duration : 1h 26mn
Overall bit rate : 4 552 Kbps
Movie name : Дискотека / Школа танца / School Dance (2014) WEB-DL 720p
Encoded date : UTC 2014-10-11 08:41:00
Writing application : mkvmerge v7.2.0 ('On Every Street') 32bit built on Sep 13 2014 15:42:11
Writing library : libebml v1.3.0 + libmatroska v1.4.1
Cover : Yes
Video
ID : 1
Format : AVC
Format/Info : Advanced Video Codec
Format profile : High@L3.1
Format settings, CABAC : No
Format settings, ReFrames : 2 frames
Codec ID : V_MPEG4/ISO/AVC
Duration : 1h 26mn
Bit rate : 3 885 Kbps
Width : 1 280 pixels
Height : 718 pixels
Display aspect ratio : 16:9
Frame rate mode : Constant
Frame rate : 23.976 fps
Color space : YUV
Chroma subsampling : 4:2:0
Bit depth : 8 bits
Scan type : Progressive
Bits/(Pixel*Frame) : 0.176
Stream size : 2.34 GiB (85%)
Language : English
Default : Yes
Forced : No
Color primaries : BT.709
Transfer characteristics : BT.709
Matrix coefficients : BT.709
Audio #1
ID : 2
Format : AC-3
Format/Info : Audio Coding 3
Mode extension : CM (complete main)
Format settings, Endianness : Big
Codec ID : A_AC3
Duration : 1h 26mn
Bit rate mode : Constant
Bit rate : 192 Kbps
Channel(s) : 2 channels
Channel positions : Front: L R
Sampling rate : 48.0 KHz
Bit depth : 16 bits
Compression mode : Lossy
Stream size : 118 MiB (4%)
Title : VO
Language : Russian
Default : Yes
Forced : No
Audio #2
ID : 3
Format : AC-3
Format/Info : Audio Coding 3
Mode extension : CM (complete main)
Format settings, Endianness : Big
Codec ID : A_AC3
Duration : 1h 26mn
Bit rate mode : Constant
Bit rate : 384 Kbps
Channel(s) : 6 channels
Channel positions : Front: L C R, Side: L R, LFE
Sampling rate : 48.0 KHz
Bit depth : 16 bits
Compression mode : Lossy
Stream size : 237 MiB (8%)
Language : English
Default : No
Forced : No
Text
ID : 4
Format : UTF-8
Codec ID : S_TEXT/UTF8
Codec ID/Info : UTF-8 Plain Text
Language : English
Default : No
Forced : No
Menu
00:00:00.000 : en:Chapter 1
00:12:08.000 : en:Chapter 2
00:22:53.000 : en:Chapter 3
00:34:07.000 : en:Chapter 4
00:46:00.000 : en:Chapter 5
00:53:40.000 : en:Chapter 6
01:02:48.000 : en:Chapter 7
01:10:08.000 : en:Chapter 8
01:17:21.000 : en:Chapter 9

_________________
Показать сообщения:    

Текущее время: Сегодня 20:54

Часовой пояс: GMT



Вы не можете начинать темы
Вы не можете отвечать на сообщения
Вы не можете редактировать свои сообщения
Вы не можете удалять свои сообщения
Вы не можете голосовать в опросах
Вы не можете прикреплять файлы к сообщениям
Вы не можете скачивать файлы