Важное объявление!
У Нас Все раздачи мультитрекерные, при нуле пиров в релизах, можете смело вставать на закачку!
 
Автор Сообщение

HUNTER

Стаж:
4 года 4 месяца
Сообщений:
56733

Репутация: 101

[+] [-]
Вне форума [Профиль] [ЛС]

Школа Монстров: Страх! Камера! Мотор! / Monster High: Frights, Camera, Action!
Страна: США
Жанр: Мультипликация
Продолжительность: 01:13:37
Год выпуска: 2014
Перевод: Профессиональный (дублированный)
Русские субтитры: нет-Режиссёр: Уильям Лау / William Lau
Роли озвучивали: Йени Альварез, Лаура Бэйли, Кэмерон Кларк, Эрин Фитзералд, Джони Гуд, Маркус Гриффин, Келест Хендерсон, Кейт Хиггинс, Джеймс Хоран-Описание: Когда Дракулаура решает, что она законная наследница вампирского трона, то вместе с подругами-монстрами отправляется прямиком в Трансильванию на вожделенную коронацию. Но вскоре они обнаруживают, что охота на королеву еще не окончена! Нашим героиням предстоит найти древнейший артефакт, известный как Сердце Вампира, чтобы узнать, кто является настоящей Королевой Вампиров. В захватывающем дух приключении, девушки побывают в Башне Лондума, на заколдованном корабле в Нью-Горлеане и даже в гламурном Хаунтливуде. Суждено ли Дракулауре обрести настоящие вампирские силы и правда ли, что самые ужасные мечты становятся реальностью.-Качество: BDRip 1080p
Формат: MKV
Видео: AVC, 1920x1080 (16:9), 23.976 fps, 4 000 Kbps (0.080 bit/pixel)
Аудио 1: AC-3, 48.0 KHz, 6 ch, 384 Kbps, CBR (Russian)
Аудио 2: DTS, 48.0 KHz, 6 ch, 1 510 Kbps, CBR (English)
Субтитры: English
Семпл: Забираем тут

Подробные технические данные

ОбщееУникальный идентификатор : 220014485615122064468953072201753820704 (0xA5853FA48B97F714B7FB94AB2BA5FE20)Полное имя : F:\Monster High Frights, Camera, Action! 2014 BDRip 1080p.mkvФормат : MatroskaВерсия формата : Version 4 / Version 2Размер файла : 3,03 ГбайтПродолжительность : 1 ч. 13 м.Режим общего битрейта : ПеременныйОбщий поток : 5897 Кбит/секДата кодирования : UTC 2014-04-12 05:34:44Программа кодирования : mkvmerge v6.7.0 ('Back to the Ground') 32bit built on Jan 8 2014 15:03:17Библиотека кодирования : libebml v1.3.0 + libmatroska v1.4.1
ВидеоИдентификатор : 1Формат : AVCФормат/Информация : Advanced Video CodecПрофиль формата : High@L4.0Параметр CABAC формата : ДаПараметр ReFrames формата : 4 кадраИдентификатор кодека : V_MPEG4/ISO/AVCПродолжительность : 1 ч. 13 м.Вид битрейта : ПеременныйБитрейт : 4000 Кбит/секМаксимальный битрейт : 40,0 Мбит/секШирина : 1920 пикселейВысота : 1080 пикселейСоотношение сторон : 16:9Режим частоты кадров : ПостоянныйЧастота кадров : 23,976 кадра/секЦветовое пространство : YUVСубдискретизация насыщенности : 4:2:0Битовая глубина : 8 битТип развёртки : ПрогрессивнаяБит/(Пиксели*Кадры) : 0.080Размер потока : 2,00 Гбайт (66%)Библиотека кодирования : x264 core 142 r2409 d6b4e63Настройки программы : cabac=1 / ref=4 / deblock=1:-3:-3 / analyse=0x3:0x133 / me=tesa / subme=10 / psy=1 / psy_rd=1.00:0.00 / mixed_ref=1 / me_range=16 / chroma_me=1 / trellis=2 / 8x8dct=1 / cqm=0 / deadzone=21,11 / fast_pskip=1 / chroma_qp_offset=-2 / threads=6 / lookahead_threads=1 / sliced_threads=0 / nr=0 / decimate=1 / interlaced=0 / bluray_compat=0 / constrained_intra=0 / bframes=6 / b_pyramid=2 / b_adapt=1 / b_bias=0 / direct=1 / weightb=1 / open_gop=0 / weightp=2 / keyint=240 / keyint_min=24 / scenecut=40 / intra_refresh=0 / rc_lookahead=40 / rc=2pass / mbtree=1 / bitrate=4000 / ratetol=1.0 / qcomp=0.60 / qpmin=0 / qpmax=69 / qpstep=4 / cplxblur=20.0 / qblur=0.5 / vbv_maxrate=20000 / vbv_bufsize=25000 / nal_hrd=none / filler=0 / ip_ratio=1.40 / aq=1:1.Язык : EnglishDefault : ДаForced : Нет
Аудио #1Идентификатор : 2Формат : AC-3Формат/Информация : Audio Coding 3Расширение режима : CM (complete main)Параметр Endianness формата : BigИдентификатор кодека : A_AC3Продолжительность : 1 ч. 13 м.Вид битрейта : ПостоянныйБитрейт : 384 Кбит/секКаналы : 6 каналовРасположение каналов : Front: L C R, Side: L R, LFEЧастота : 48,0 КГцБитовая глубина : 16 битМетод сжатия : С потерямиРазмер потока : 202 Мбайт (7%)Язык : RussianDefault : ДаForced : Нет
Аудио #2Идентификатор : 3Формат : DTSФормат/Информация : Digital Theater SystemsРежим : 16Параметр Endianness формата : BigИдентификатор кодека : A_DTSПродолжительность : 1 ч. 13 м.Вид битрейта : ПостоянныйБитрейт : 1509 Кбит/секКаналы : 6 каналовРасположение каналов : Front: L C R, Side: L R, LFEЧастота : 48,0 КГцБитовая глубина : 24 битМетод сжатия : С потерямиРазмер потока : 795 Мбайт (26%)Язык : EnglishDefault : НетForced : Нет
ТекстИдентификатор : 4Формат : UTF-8Идентификатор кодека : S_TEXT/UTF8Идентификатор кодека/Информация : UTF-8 Plain TextЯзык : EnglishDefault : НетForced : Нет
Меню00:00:00.000 : en:00:00:00.00000:05:12.062 : en:00:05:12.06200:10:37.762 : en:00:10:37.76200:17:19.664 : en:00:17:19.66400:25:16.473 : en:00:25:16.47300:32:14.391 : en:00:32:14.39100:37:35.545 : en:00:37:35.54500:46:06.889 : en:00:46:06.88900:55:46.468 : en:00:55:46.46801:03:42.944 : en:01:03:42.94401:08:12.839 : en:01:08:12.83901:12:34.725 : en:01:12:34.725

Скриншоты



_________________
Показать сообщения:    

Текущее время: Сегодня 01:10

Часовой пояс: GMT



Вы не можете начинать темы
Вы не можете отвечать на сообщения
Вы не можете редактировать свои сообщения
Вы не можете удалять свои сообщения
Вы не можете голосовать в опросах
Вы не можете прикреплять файлы к сообщениям
Вы не можете скачивать файлы