Важное объявление!
У Нас Все раздачи мультитрекерные, при нуле пиров в релизах, можете смело вставать на закачку!
 
Автор Сообщение

HUNTER

Стаж:
4 года 4 месяца
Сообщений:
56809

Репутация: 101

[+] [-]
Вне форума [Профиль] [ЛС]

Школа монстров: Побег с острова черепов / Monster High: Escape from Skull Shores
Страна: США
Жанр: Мультипликация
Продолжительность: 00:46:03
Год выпуска: 2012
Перевод: Профессиональный (дублированный)
Русские субтитры: нет-Режиссёр: Стив Болл / Steve Ball, Эндрю Дункан / Andrew Duncan
Роли озвучивали: Лора Бэйли (Lagoona Blue), Оги Бэнкс (Clawd Wolf), Кэм Кларк (Heath Burns / Ghost), Мальколм Дэнар (Kipling), Деби Дерриберри (Draculaura), Эрин Фицджералд (Abbey Bominable / Spectra Vondergeist), Кейт Хиггинс (Frankie Stein), Jonathan Lipow (The Tikis), Джордж Ньюберн (Andy Beast), Оду Паден (Ghoulia Yelps / Manny Taur / Nightmare), Синди Робинсон (Jackson Jekyll / Holt Hyde / Operetta), Салли Саффиоти (Clawdeen Wolf / Cleo DeNile)-Описание: Девочки готовятся к самой КЛЫКассной вечеринке во время весенних каникул в Школе Монстров: Побег с Острова Черепов. Но вскоре их яхта терпит крушение на загадочном острове, где Фрэнки Штейн похищает чудовище... непонятно, кому же из них потребуется помощь!
Качество: BDRip 1080p
Формат: MKV
Видео: AVC, 1920x1080 (16:9), 23.976 fps, 5 273 Kbps (0.106 bit/pixel)
Аудио 1: AC-3, 48.0 KHz, 6 ch, 448 Kbps, CBR (Russian)
Аудио 2: DTS, 48.0 KHz, 6 ch, 1 510 Kbps, CBR (English)
Субтитры: отсутствуют
Семпл: Забираем тут

Подробные технические данные

GeneralUnique ID : 206740565099338734039802060413341520197 (0x9B88C8D5485E1BDCBB1FF778A29BD145)Complete name : D:\monster high\Monster High Escape from skull shores 2012 bdrip 1080p.mkvFormat : MatroskaFormat version : Version 4 / Version 2File size : 2.33 GiBDuration : 46mn 2sOverall bit rate : 7 232 KbpsEncoded date : UTC 2015-06-14 16:18:48Writing application : mkvmerge v7.7.0 ('Six Voices') 64bit built on Feb 28 2015 23:39:33Writing library : libebml v1.3.1 + libmatroska v1.4.2DURATION : 00:46:02.816000000NUMBER_OF_FRAMES : 86338NUMBER_OF_BYTES : 154717696_STATISTICS_WRITING_APP : mkvmerge v7.7.0 ('Six Voices') 64bit built on Feb 28 2015 23:39:33_STATISTICS_WRITING_DATE_UT : 2015-06-14 16:18:48_STATISTICS_TAGS : BPS DURATION NUMBER_OF_FRAMES NUMBER_OF_BYTES
VideoID : 1Format : AVCFormat/Info : Advanced Video CodecFormat profile : High@L4.1Format settings, CABAC : YesFormat settings, ReFrames : 4 framesCodec ID : V_MPEG4/ISO/AVCDuration : 46mn 2sBit rate : 5 273 KbpsWidth : 1 920 pixelsHeight : 1 080 pixelsDisplay aspect ratio : 16:9Frame rate mode : ConstantFrame rate : 23.976 fpsColor space : YUVChroma subsampling : 4:2:0Bit depth : 8 bitsScan type : ProgressiveBits/(Pixel*Frame) : 0.106Stream size : 1.65 GiB (71%)Writing library : x264 core 142 r2453 ea0ca51Encoding settings : cabac=1 / ref=4 / deblock=1:0:0 / analyse=0x3:0x133 / me=umh / subme=7 / psy=1 / psy_rd=1.00:0.00 / mixed_ref=1 / me_range=16 / chroma_me=1 / trellis=1 / 8x8dct=1 / cqm=0 / deadzone=21,11 / fast_pskip=0 / chroma_qp_offset=-2 / threads=30 / lookahead_threads=5 / sliced_threads=0 / nr=0 / decimate=1 / interlaced=0 / bluray_compat=0 / constrained_intra=0 / bframes=3 / b_pyramid=2 / b_adapt=2 / b_bias=0 / direct=3 / weightb=1 / open_gop=0 / weightp=2 / keyint=240 / keyint_min=23 / scenecut=40 / intra_refresh=0 / rc_lookahead=50 / rc=2pass / mbtree=1 / bitrate=5273 / ratetol=1.0 / qcomp=0.60 / qpmin=0 / qpmax=69 / qpstep=4 / cplxblur=20.0 / qblur=0.5 / ip_ratio=1.40 / aq=1:1.00Language : EnglishDefault : YesForced : NoDURATION : 00:46:02.844000000NUMBER_OF_FRAMES : 66242NUMBER_OF_BYTES : 1820877722_STATISTICS_WRITING_APP : mkvmerge v7.7.0 ('Six Voices') 64bit built on Feb 28 2015 23:39:33_STATISTICS_WRITING_DATE_UT : 2015-06-14 16:18:48_STATISTICS_TAGS : BPS DURATION NUMBER_OF_FRAMES NUMBER_OF_BYTES
Audio #1ID : 2Format : AC-3Format/Info : Audio Coding 3Mode extension : CM (complete main)Format settings, Endianness : BigCodec ID : A_AC3Duration : 46mn 2sBit rate mode : ConstantBit rate : 448 KbpsChannel(s) : 6 channelsChannel positions : Front: L C R, Side: L R, LFESampling rate : 48.0 KHzCompression mode : LossyStream size : 148 MiB (6%)Language : RussianDefault : YesForced : No
Audio #2ID : 3Format : DTSFormat/Info : Digital Theater SystemsMode : 16Format settings, Endianness : BigCodec ID : A_DTSDuration : 46mn 2sBit rate mode : ConstantBit rate : 1 509 KbpsChannel(s) : 6 channelsChannel positions : Front: L C R, Side: L R, LFESampling rate : 48.0 KHzBit depth : 24 bitsCompression mode : LossyStream size : 497 MiB (21%)Language : EnglishDefault : NoForced : No
Menu00:00:00.000 : :00:00:00.00000:01:13.865 : :00:01:13.86500:07:27.530 : :00:07:27.53000:14:16.522 : :00:14:16.52200:22:35.729 : :00:22:35.72900:28:39.593 : :00:28:39.59300:36:16.049 : :00:36:16.04900:45:30.853 : :00:45:30.853

Скриншоты



_________________
Показать сообщения:    

Текущее время: Сегодня 18:56

Часовой пояс: GMT



Вы не можете начинать темы
Вы не можете отвечать на сообщения
Вы не можете редактировать свои сообщения
Вы не можете удалять свои сообщения
Вы не можете голосовать в опросах
Вы не можете прикреплять файлы к сообщениям
Вы не можете скачивать файлы