Важное объявление!
У Нас Все раздачи мультитрекерные, при нуле пиров в релизах, можете смело вставать на закачку!
 
Автор Сообщение

HUNTER

Стаж:
4 года 4 месяца
Сообщений:
56722

Репутация: 101

[+] [-]
Вне форума [Профиль] [ЛС]

Школа монстров: Мотор! / Monster High: Fright On!-
Страна: США
Жанр: мультфильм
Год выпуска: 2012
Продолжительность: 00:46:03
Перевод: Профессиональный (полное дублирование)
Русские субтитры: Нет-Режиссер: Виктор Даль Челе / Victor Dal Chela-Описание: В Школе монстров важное событие! Благодаря тому, что в этой школе, в мире и гармонии живут монстры всех мастей, её решили расширить! В скором будущем, в неё прибудут два самых больших клана - вампиры и оборотни. Однако их прошлое не столь безмятежное, как вы могли бы подумать - монстры этих двух кланов издавна не любят друг друга и между ними идёт негласная война, а учитывая тот факт, что теперь они будут ещё и учиться вместе, то можно предположить что открытое столкновение этих двух кланов просто неизбежно. Клыки против шерсти - кто же победит? Или, быть может, нашим подругам удастся помирить две издавна враждующие стороны?!-Рейтинг: -Релиз на DVD: 10 июля 2014, «Двадцатый Век Фокс СНГ»
Релиз на Blu-ray: 10 июля 2014, «Двадцатый Век Фокс СНГ»-Релиз: -Семпл-b]Качество
: BDRip [MHCLAWESOME_G51_HDCLUB]
Формат: AVI
Видео: 720x400 (1.80:1), 23.976 fps, XviD build 65 ~2051 kbps avg, 0.30 bit/pixel
Аудио: 48 kHz, AC3 Dolby Digital, 2/0 (L,R) ch, ~192 kbps
Субтитры: Отсутствуют-

MI

Format : AVIFormat/Info : Audio Video InterleaveFile size : 742 MiBDuration : 46mn 3sOverall bit rate : 2 253 KbpsWriting application : VirtualDubMod 1.5.10.3 | www.virtualdub-fr.org || (build 2550/release)Writing library : VirtualDubMod build 2550/release
VideoID : 0Format : MPEG-4 VisualFormat profile : Advanced Simple@L5Format settings, BVOP : 2Format settings, QPel : NoFormat settings, GMC : No warppointsFormat settings, Matrix : CustomCodec ID : XVIDCodec ID/Hint : XviDDuration : 46mn 3sBit rate : 2 052 KbpsWidth : 720 pixelsHeight : 400 pixelsDisplay aspect ratio : 16:9Frame rate : 23.976 fpsColor space : YUVChroma subsampling : 4:2:0Bit depth : 8 bitsScan type : ProgressiveCompression mode : LossyBits/(Pixel*Frame) : 0.297Stream size : 676 MiB (91%)Writing library : XviD 65
AudioID : 1Format : AC-3Format/Info : Audio Coding 3Mode extension : CM (complete main)Format settings, Endianness : BigCodec ID : 2000Duration : 46mn 3sBit rate mode : ConstantBit rate : 192 KbpsChannel(s) : 2 channelsChannel positions : Front: L RSampling rate : 48.0 KHzBit depth : 16 bitsCompression mode : LossyStream size : 63.2 MiB (9%)Alignment : Split accross interleavesInterleave, duration : 42 ms (1.00 video frame)Interleave, preload duration : 500 ms
Все раздачи мультфильма!

_________________
Показать сообщения:    

Текущее время: Сегодня 16:01

Часовой пояс: GMT



Вы не можете начинать темы
Вы не можете отвечать на сообщения
Вы не можете редактировать свои сообщения
Вы не можете удалять свои сообщения
Вы не можете голосовать в опросах
Вы не можете прикреплять файлы к сообщениям
Вы не можете скачивать файлы