Важное объявление!
У Нас Все раздачи мультитрекерные, при нуле пиров в релизах, можете смело вставать на закачку!
 
Автор Сообщение

HUNTER

Стаж:
4 года 4 месяца
Сообщений:
56733

Репутация: 101

[+] [-]
Вне форума [Профиль] [ЛС]

Школа монстров: Монстры! Камера! Мотор!
Monster High: Frights, Camera, Action!
Страна: США
Жанр: мультфильм
Продолжительность: 01:13:37
Год выпуска: 2014-Перевод : Профессиональный (дублированный) iTunes
Русские субтитры: нет
Режиссёр: Уильям Лау / William Lau-Роли озвучивали: Йени Альварез, Лаура Бэйли, Кэмерон Кларк, Эрин Фитзералд, Джони Гуд, Маркус Гриффин, Келест Хендерсон, Кейт Хиггинс, Джеймс Хоран-Описание: Когда Дракулаура решает, что она законная наследница вампирского трона, то вместе с подругами-монстрами отправляется прямиком в Трансильванию на вожделенную коронацию. Но вскоре они обнаруживают, что охота на королеву еще не окончена! Нашим героиням предстоит найти древнейший артефакт, известный как Сердце Вампира, чтобы узнать, кто является настоящей Королевой Вампиров. В захватывающем дух приключении, девушки побывают в Башне Лондума, на заколдованном корабле в Нью-Горлеане и даже в гламурном Хаунтливуде. Суждено ли Дракулауре обрести настоящие вампирские силы и правда ли, что самые ужасные мечты становятся реальностью.- -Качество: BDRip
Формат: AVI
Видео: 688x384 (1.79:1), 23.976 fps, XviD 66 ~1 281 kbps avg, 0.20 bit/pixel
Аудио: 48.0 kHz, MPEG Layer 3, 2/0 (L,R) ch, ~128 kbps
Субтитры: отсутствуют

MI

General
Complete name : D:\incarcare\rip gata\Школа.монстров.Страх!Камера!Мотор!.avi
Format : AVI
Format/Info : Audio Video Interleave
File size : 747 MiB
Duration : 1h 13mn
Overall bit rate : 1 418 Kbps
Writing application : VirtualDubMod 1.5.10.2 (build 2540/release)
Writing library : VirtualDubMod build 2540/release
Video
ID : 0
Format : MPEG-4 Visual
Format profile : Advanced Simple@L5
Format settings, BVOP : 1
Format settings, QPel : No
Format settings, GMC : No warppoints
Format settings, Matrix : Custom
Codec ID : XVID
Codec ID/Hint : XviD
Duration : 1h 13mn
Bit rate : 1 281 Kbps
Width : 688 pixels
Height : 384 pixels
Display aspect ratio : 16:9
Frame rate : 23.976 fps
Color space : YUV
Chroma subsampling : 4:2:0
Bit depth : 8 bits
Scan type : Progressive
Compression mode : Lossy
Bits/(Pixel*Frame) : 0.202
Stream size : 674 MiB (90%)
Writing library : XviD 66
Audio
ID : 1
Format : MPEG Audio
Format version : Version 1
Format profile : Layer 3
Codec ID : 55
Codec ID/Hint : MP3
Duration : 1h 13mn
Bit rate mode : Constant
Bit rate : 128 Kbps
Channel(s) : 2 channels
Sampling rate : 48.0 KHz
Compression mode : Lossy
Stream size : 67.4 MiB (9%)
Alignment : Aligned on interleaves
Interleave, duration : 42 ms (1.00 video frame)
Interleave, preload duratio : 504 ms

Скриншоты


_________________
Показать сообщения:    

Текущее время: Сегодня 02:49

Часовой пояс: GMT



Вы не можете начинать темы
Вы не можете отвечать на сообщения
Вы не можете редактировать свои сообщения
Вы не можете удалять свои сообщения
Вы не можете голосовать в опросах
Вы не можете прикреплять файлы к сообщениям
Вы не можете скачивать файлы