Важное объявление!
У Нас Все раздачи мультитрекерные, при нуле пиров в релизах, можете смело вставать на закачку!
 
Автор Сообщение

HUNTER

Стаж:
4 года 4 месяца
Сообщений:
56848

Репутация: 101

[+] [-]
Вне форума [Профиль] [ЛС]

Школа монстров: Монстрические мутации / Monster High: Freaky Fusion
Страна: США
Жанр: мультфильм
Продолжительность: 01:13:33
Год выпуска: 2014
Перевод: Профессиональный (полное дублирование) BD EUR
Cубтитры: нет
Режиссёр: Уильям Лау / William Lau, Сильвен Блэ / Sylvain Blais
Роли озвучивали: Лора Бэйли, Кейт Хиггинс, Паула Родс, Хэвиланд Стиллвелл, Америка Янг, Эрин Фицджералд, Дэйв Митчелл, Сью Свон, Джони Гуд, Селеста Хендерсон
Описание: Когда лаборатории в результате аварии появляются 4 новых монстра и 8 монстров перемешиваются телами, Фрэнки и новый гибридный студент пытается помочь ей привести друзей из Монстрических Мутаций в норму и остановить научный эксперимент, который пошел не так, прежде чем аппарат в лаборатории сломается окончательно.
Качество: BDRip |MONSTER_HIGH_FREAKY_FUSION_G51_HDCLUB crazy_gringo Blu-ray EUR 1080p AVC DTS 5.1
Формат: AVI
Видео: XviD 65, 704x400 (1.77:1), ~2050 kbps, 24.000 fps, 0.304 bpp
Аудио 1: 48 kHz, AC3 Dolby Digital, 3/2 (L,C,R,l,r) + LFE ch, ~384 kbps - Rus
Аудио 2: 48 kHz, AC3 Dolby Digital, 3/2 (L,C,R,l,r) + LFE ch, ~384 kbps - Eng

Релиз от: nnlabetik

-
Релиз на DVD: 25 сентября 2014, «Двадцатый Век Фокс СНГ»
Релиз на Blu-ray: 25 сентября 2014, «Двадцатый Век Фокс СНГ»
-

MI

ОбщееПолное имя : Q:\Monstricheskie.mutaczii.2014.BDRip_1.46Gb.aviФормат : AVIФормат/Информация : Audio Video InterleaveРазмер файла : 1,46 ГбайтПродолжительность : 1 ч. 13 м.Общий поток : 2834 Кбит/секНазвание фильма : Школа монстров: Монстрические мутации / Monster High: Freaky Fusion (2014) -=NN@LIFE=-Режиссёр : Rip by nnlabetikПрограмма кодирования : VirtualDubMod 1.5.10.2 (build 2542/release)Библиотека кодирования : VirtualDubMod build 2542/release
ВидеоИдентификатор : 0Формат : MPEG-4 VisualПрофиль формата : Advanced Simple@L5Параметр BVOP формата : 1Параметр QPel формата : НетПараметр GMC формата : Без точки переходаПараметр матрицы формата : ВыборочнаяИдентификатор кодека : XVIDИдентификатор кодека/Подсказка : XviDПродолжительность : 1 ч. 13 м.Битрейт : 2052 Кбит/секШирина : 704 пикселяВысота : 400 пикселейСоотношение сторон : 16:9Частота кадров : 24,000 кадра/секЦветовое пространство : YUVСубдискретизация насыщенности : 4:2:0Битовая глубина : 8 битТип развёртки : ПрогрессивнаяМетод сжатия : С потерямиБит/(Пиксели*Кадры) : 0.304Размер потока : 1,05 Гбайт (72%)Библиотека кодирования : XviD 65
Аудио #1Идентификатор : 1Формат : AC-3Формат/Информация : Audio Coding 3Расширение режима : CM (complete main)Параметр Endianness формата : BigИдентификатор кодека : 2000Продолжительность : 1 ч. 13 м.Вид битрейта : ПостоянныйБитрейт : 384 Кбит/секКаналы : 6 каналовРасположение каналов : Front: L C R, Side: L R, LFEЧастота : 48,0 КГцБитовая глубина : 16 битМетод сжатия : С потерямиРазмер потока : 202 Мбайт (14%)Выравнивание : Разделение по промежуткамПродолжительность промежутка : 42 мс. (1,00 видеокадр)Время предзагрузки промежутка : 500 мс.
Аудио #2Идентификатор : 2Формат : AC-3Формат/Информация : Audio Coding 3Расширение режима : CM (complete main)Параметр Endianness формата : BigИдентификатор кодека : 2000Продолжительность : 1 ч. 13 м.Вид битрейта : ПостоянныйБитрейт : 384 Кбит/секКаналы : 6 каналовРасположение каналов : Front: L C R, Side: L R, LFEЧастота : 48,0 КГцБитовая глубина : 16 битМетод сжатия : С потерямиРазмер потока : 202 Мбайт (14%)Выравнивание : Разделение по промежуткамПродолжительность промежутка : 42 мс. (1,00 видеокадр)Время предзагрузки промежутка : 500 мс.

_________________
Показать сообщения:    

Текущее время: Сегодня 00:13

Часовой пояс: GMT



Вы не можете начинать темы
Вы не можете отвечать на сообщения
Вы не можете редактировать свои сообщения
Вы не можете удалять свои сообщения
Вы не можете голосовать в опросах
Вы не можете прикреплять файлы к сообщениям
Вы не можете скачивать файлы
Наши партнеры: интернет магазин Ивановского трикотажа textilla.ru