Важное объявление!
У Нас Все раздачи мультитрекерные, при нуле пиров в релизах, можете смело вставать на закачку!
 
Автор Сообщение

HUNTER

Стаж:
4 года 4 месяца
Сообщений:
56822

Репутация: 101

[+] [-]
Вне форума [Профиль] [ЛС]

Школа Монстров: Добро пожаловать в Школу монстров / Monster High: Welcome to Monster High
Год выпуска: 2016
Страна: США
Жанр: мультфильм, семейный
Продолжительность: 01:04:23
Перевод: Профессиональный (дублированный)
Субтитры: русские (телетекст)
Режиссёр: Стэфен Донелли / Stephen Donnelly
Описание: Хотите узнать, как всё начиналось? Когда и почему возникла Школа Монстров? Ответы на все вопросы — в новом мультфильме о приключениях нестрашных монстров!
Давным-давно монстры жили скрываясь от людей и считая их опасными. Но Дракулаура, дочь Дракулы, и ее подружки захотели изменить ситуацию, создав такую школу, в который бы самые разнообразные монстры чувствовали себя в безопасности.
Решив осуществить эту мечту, Дракулаура и ее подруги отправляются в путешествие по миру, в ходе которого они спасают скрывающихся в подполье монстров и попадают в эпические приключения, набирая студентов для новой Школы Монстров.
Доп. информация:

Релиз группы:
Трансляция спутникового канала:

Семпл: https://yadi.sk/i/eyNDPFQjwUhkc
Качество видео: DVB
Формат видео: MPEG-TS
Видео: MPEG4 Video (H264), 720x576@785x576 (4:3), анаморф, 25 fps, 2700 kbps
Аудио: MPEG Audio, 2 сh, 48 kHz, 192 kbps

MediaInfo

D:\Monster High. Welcome to Monster High. (2016)_DVB by SLuMeP.ts
General #1
ID : 1 (0x1)
Complete name : D:\Monster High. Welcome to Monster High. (2016)_DVB by SLuMeP.ts
Format : MPEG-TS
File size : 1.37 GiB
Duration : 1h 4mn
Overall bit rate mode : Variable
Overall bit rate : 3 037 Kbps
Video #2508
ID : 2508 (0x9CC)
Menu ID : 508 (0x1FC)
Format : AVC
Format/Info : Advanced Video Codec
Format profile : Main@L3.0
Format settings, CABAC : Yes
Format settings, ReFrames : 3 frames
Format settings, GOP : M=4, N=28
Codec ID : 27
Duration : 1h 4mn
Bit rate : 2 693 Kbps
Width : 720 pixels
Height : 576 pixels
Display aspect ratio : 4:3
Frame rate : 25.000 fps
Standard : Component
Color space : YUV
Chroma subsampling : 4:2:0
Bit depth : 8 bits
Scan type : Interlaced
Scan order : Top Field First
Bits/(Pixel*Frame) : 0.260
Stream size : 1.21 GiB (89%)
Color primaries : BT.601 PAL
Transfer characteristics : BT.470 System B, BT.470 System G
Matrix coefficients : BT.601
Audio #3508
ID : 3508 (0xDB4)
Menu ID : 508 (0x1FC)
Format : MPEG Audio
Format version : Version 1
Format profile : Layer 2
Codec ID : 3
Duration : 1h 4mn
Bit rate mode : Constant
Bit rate : 192 Kbps
Channel(s) : 2 channels
Sampling rate : 48.0 KHz
Compression mode : Lossy
Delay relative to video : -120ms
Stream size : 88.4 MiB (6%)
Language : English
Text #3509-100
ID : 3509 (0xDB5)-100
Menu ID : 508 (0x1FC)
Format : Teletext
Language : Russian
Menu #1508
ID : 1508 (0x5E4)
Menu ID : 508 (0x1FC)
Duration : 1h 4mn
List : 2508 (0x9CC) (AVC) / 3508 (0xDB4) (MPEG Audio, English) / 3509 (0xDB5) ()
Language : / English

Скриншоты



_________________
Показать сообщения:    

Текущее время: Сегодня 23:27

Часовой пояс: GMT



Вы не можете начинать темы
Вы не можете отвечать на сообщения
Вы не можете редактировать свои сообщения
Вы не можете удалять свои сообщения
Вы не можете голосовать в опросах
Вы не можете прикреплять файлы к сообщениям
Вы не можете скачивать файлы