Важное объявление!
У Нас Все раздачи мультитрекерные, при нуле пиров в релизах, можете смело вставать на закачку!
 
Автор Сообщение

HUNTER

Стаж:
4 года 4 месяца
Сообщений:
56829

Репутация: 101

[+] [-]
Вне форума [Профиль] [ЛС]

Школа Монстров: Бу-Йорк, Бу-Йорк / Monster High: Boo York, Boo York
Страна: США
Жанр: Мультипликация
Продолжительность: 01:11:31
Год выпуска: 2015
Перевод: Профессиональный (дублированный)
Русские субтитры: нет-Режиссёр: Уильям Лау / William Lau-Описание: Совсем скоро над городком Бу-Йорк пролетит настоящая комета с волшебными свойствами. Прибудет сама Астра Нова, которую почитает все местная молодежь. Этого события ждут все жители. Власти городка решают ознаменовать это событие праздничным торжеством. В концертной программе также будут принимать участие лучшие звезды и талантливые артисты, не перестающие радовать своим творчеством зрителя. Ученицы из школы Монстер Хай тоже будут участниками концертной программы. Наконец-то, этим девчонкам представиться шанс показать все свои таланты. Все в округе увидят, что в этой школе учатся самые потрясающие и гениальные красотки монстрессы. Подготовка к концерту в самом разгаре, только выясняется, что одной участницы не хватает. Девочки из квартета чувствуют приступы паники. Ведь их момент славы оказывается на грани срыва.-Релиз от - -Качество: BDRip 1080p
Формат: MKV
Видео: AVC, 1920x1080 (16:9), 23.976 fps, 5 042 Kbps (0.101 bit/pixel)
Аудио 1: AC-3 Dolby Digital, 48.0 KHz, 2 ch, 192 Kbps, CBR (Russian)
Аудио 2: DTS, 48.0 KHz, 6 ch, 1 510 Kbps, CBR (English)
Субтитры: English
Семпл: Забираем тут

Подробные технические данные

GeneralUnique ID : 171698166324259934919023969331830774285 (0x812BDD2E94DCF60BA878672C1C02DA0D)Complete name : Monster High Boo York Boo York 2015 BDRip 1080p.mkvFormat : MatroskaFormat version : Version 4 / Version 2File size : 3.37 GiBDuration : 1h 11mnOverall bit rate : 6 745 KbpsEncoded date : UTC 2015-10-26 13:07:22Writing application : mkvmerge v8.3.0 ('Over the Horizon') 64bitWriting library : libebml v1.3.1 + libmatroska v1.4.2DURATION : 01:11:30.880000000NUMBER_OF_FRAMES : 134090NUMBER_OF_BYTES : 102981120_STATISTICS_WRITING_APP : mkvmerge v8.3.0 ('Over the Horizon') 64bit_STATISTICS_WRITING_DATE_UT : 2015-10-26 13:07:22_STATISTICS_TAGS : BPS DURATION NUMBER_OF_FRAMES NUMBER_OF_BYTES
VideoID : 1Format : AVCFormat/Info : Advanced Video CodecFormat profile : High@L4.1Format settings, CABAC : YesFormat settings, ReFrames : 4 framesCodec ID : V_MPEG4/ISO/AVCDuration : 1h 11mnBit rate : 5 042 KbpsWidth : 1 920 pixelsHeight : 1 080 pixelsDisplay aspect ratio : 16:9Frame rate mode : ConstantFrame rate : 23.976 fpsColor space : YUVChroma subsampling : 4:2:0Bit depth : 8 bitsScan type : ProgressiveBits/(Pixel*Frame) : 0.101Stream size : 2.45 GiB (73%)Writing library : x264 core 148 r2597 e86f3a1Encoding settings : cabac=1 / ref=4 / deblock=1:1:1 / analyse=0x3:0x133 / me=umh / subme=8 / psy=1 / psy_rd=1.00:0.00 / mixed_ref=1 / me_range=16 / chroma_me=1 / trellis=1 / 8x8dct=1 / cqm=0 / deadzone=21,11 / fast_pskip=0 / chroma_qp_offset=-2 / threads=18 / lookahead_threads=3 / sliced_threads=0 / nr=0 / decimate=1 / interlaced=0 / bluray_compat=0 / constrained_intra=0 / bframes=3 / b_pyramid=2 / b_adapt=2 / b_bias=0 / direct=3 / weightb=1 / open_gop=0 / weightp=2 / keyint=240 / keyint_min=23 / scenecut=40 / intra_refresh=0 / rc_lookahead=50 / rc=2pass / mbtree=1 / bitrate=5042 / ratetol=1.0 / qcomp=0.60 / qpmin=0 / qpmax=69 / qpstep=4 / cplxblur=20.0 / qblur=0.5 / ip_ratio=1.40 / aq=1:1.00Language : EnglishDefault : YesForced : NoDURATION : 01:11:30.870000000NUMBER_OF_FRAMES : 102878NUMBER_OF_BYTES : 2704068590_STATISTICS_WRITING_APP : mkvmerge v8.3.0 ('Over the Horizon') 64bit_STATISTICS_WRITING_DATE_UT : 2015-10-26 13:07:22_STATISTICS_TAGS : BPS DURATION NUMBER_OF_FRAMES NUMBER_OF_BYTES
Audio #1ID : 2Format : AC-3Format/Info : Audio Coding 3Format profile : Dolby DigitalMode extension : CM (complete main)Format settings, Endianness : BigCodec ID : A_AC3Duration : 1h 11mnBit rate mode : ConstantBit rate : 192 KbpsChannel(s) : 2 channelsChannel positions : Front: L RSampling rate : 48.0 KHzCompression mode : LossyStream size : 98.2 MiB (3%)Language : RussianDefault : YesForced : No
Audio #2ID : 3Format : DTSFormat/Info : Digital Theater SystemsMode : 16Format settings, Endianness : BigCodec ID : A_DTSDuration : 1h 11mnBit rate mode : ConstantBit rate : 1 509 KbpsChannel(s) : 6 channelsChannel positions : Front: L C R, Side: L R, LFESampling rate : 48.0 KHzBit depth : 24 bitsCompression mode : LossyStream size : 772 MiB (22%)Language : EnglishDefault : NoForced : No
TextID : 4Format : UTF-8Codec ID : S_TEXT/UTF8Codec ID/Info : UTF-8 Plain TextLanguage : EnglishDefault : NoForced : No
Menu00:00:00.000 : en:00:00:00.00000:07:16.394 : en:00:07:16.39400:12:35.171 : en:00:12:35.17100:17:21.331 : en:00:17:21.33100:23:59.146 : en:00:23:59.14600:30:36.417 : en:00:30:36.41700:36:26.851 : en:00:36:26.85100:41:26.817 : en:00:41:26.81700:47:28.387 : en:00:47:28.38700:56:22.045 : en:00:56:22.04501:04:26.612 : en:01:04:26.61201:09:13.232 : en:01:09:13.232

Скриншоты



_________________
Показать сообщения:    

Текущее время: Сегодня 19:32

Часовой пояс: GMT



Вы не можете начинать темы
Вы не можете отвечать на сообщения
Вы не можете редактировать свои сообщения
Вы не можете удалять свои сообщения
Вы не можете голосовать в опросах
Вы не можете прикреплять файлы к сообщениям
Вы не можете скачивать файлы