Важное объявление!
У Нас Все раздачи мультитрекерные, при нуле пиров в релизах, можете смело вставать на закачку!
 
Автор Сообщение

HUNTER

Стаж:
4 года 4 месяца
Сообщений:
56853

Репутация: 101

[+] [-]
Вне форума [Профиль] [ЛС]

Школа виндсерфинга: Основы-

Год выпуска: 1999
Страна: США
Сайт производителя: отсутствует
Тематика: спорт
Тип материала: Обучающее видео-Продолжительность: 00:45:32
Автор: Питер Харт-Язык: Русский - Профессиональный (одноголосый)
Субтитры: отсутствуют-Описание: Что делает виндсерфинг таким привлекательным, почему миллионы людей во всем мире, едва подует ветер, тянуться к озерам, морям,и океанам, чтобы покататься на доске под парусом? Сжато и лаконично объясняются самые Азы виндсерфинга. Прекрасный учебник для начинающих.-Качество: VHSRip
Формат: MPEG
Видео кодек: MPEG2
Аудио кодек: AC3
Видео: 352x576 (4:3), 25 fps, MPEG-2, 2130 kbps avg, 0.420 bit/pixel
Аудио: 48 kHz, АС-3, 2 ch, 256.00 kbps avg-

MediaInfo

Код: copyText_writeLink('this.parentNode.parentNode.nextSibling.nextSibling'); General
Complete name : E:\Обучение\Обучение виндсерфингу (Питер Харт).mpg
Format : MPEG-PS
File size : 804 MiB
Duration : 45mn 33s
Overall bit rate : 2 467 Kbps
Video
ID : 224 (0xE0)
Format : MPEG Video
Format version : Version 2
Format profile : Main@Main
Format settings, BVOP : Yes
Format settings, Matrix : Custom
Format settings, GOP : M=3, N=12
Duration : 45mn 33s
Bit rate : 2 162 Kbps
Maximum bit rate : 2 130 Kbps
Width : 352 pixels
Height : 576 pixels
Display aspect ratio : 4:3
Frame rate : 25.000 fps
Standard : PAL
Color space : YUV
Chroma subsampling : 4:2:0
Bit depth : 8 bits
Scan type : Interlaced
Scan order : Top Field First
Compression mode : Lossy
Bits/(Pixel*Frame) : 0.426
Stream size : 704 MiB (88%)
Audio
ID : 189 (0xBD)-128 (0x80)
Format : AC-3
Format/Info : Audio Coding 3
Mode extension : CM (complete main)
Format settings, Endianness : Big
Muxing mode : DVD-Video
Duration : 45mn 32s
Bit rate mode : Constant
Bit rate : 256 Kbps
Channel(s) : 2 channels
Channel positions : Front: L R
Sampling rate : 48.0 KHz
Bit depth : 16 bits
Compression mode : Lossy
Delay relative to video : -80ms
Stream size : 83.4 MiB (10%)
Menu
- -

_________________
Показать сообщения:    

Текущее время: Сегодня 10:21

Часовой пояс: GMT



Вы не можете начинать темы
Вы не можете отвечать на сообщения
Вы не можете редактировать свои сообщения
Вы не можете удалять свои сообщения
Вы не можете голосовать в опросах
Вы не можете прикреплять файлы к сообщениям
Вы не можете скачивать файлы
Наши партнеры: интернет магазин Ивановского трикотажа textilla.ru