Важное объявление!
У Нас Все раздачи мультитрекерные, при нуле пиров в релизах, можете смело вставать на закачку!
 
Автор Сообщение

HUNTER

Стаж:
4 года 4 месяца
Сообщений:
56853

Репутация: 101

[+] [-]
Вне форума [Профиль] [ЛС]

Ширли Валентайн / Shirley Valentine«No one thought she had the courage. The nerve. Or the lingerie»-
Страна: США, Великобритания
Жанр: драма, мелодрама, комедия
Год выпуска: 1989
Продолжительность: 01:44:09-Перевод: Профессиональный (многоголосый закадровый) ТРК «Петербург-Пятый канал»
Оригинальная аудиодорожка: English
Cубтитры: отсутствуют
Навигация по главам: отсутствует-Режиссер: Льюис Гилберт / Lewis Gilbert
В ролях: Полин Коллинз, Том Конти, Джулия МакКензи, Элисон Стедман, Джоанна Ламли, Сильвия Симс, Бернард Хилл, Джордж Костиган-Описание: Ширли Валентайн — совершенно непредсказуемая домохозяйка, которая с легкостью доказывает, что никогда не поздно воплотить в жизнь самую смелую мечту.
Устав от жизни в провинциальном Ливерпуле, вдоволь наговорившись со стенами своей кухни (поскольку говорить больше было не с кем), Ширли решила тряхнуть стариной и совершить авантюрное путешествие в Грецию. В одно мгновение она с легкостью забывает о своих проблемах и с головой бросается в романтический омут, повстречав обаятельного грека по имени Костас.
Дама с удивлением обнаруживает, что «есть еще порох в пороховницах», и все ещё, возможно, только начинается…-imdb.com: 7.20 (4341)
kinopoisk.ru: 6.969 (57)
Download sample-Качество видео: HDTVRip 720p | исх. Shirley.Valentine.1920x1080i50.h264.dd51
Формат видео: MKV-Видео: 1280x720 at 25 fps, x264@L4.1, crf, ~9613 kbps avg
Аудио №1: 48 kHz, AC3, 2/0 (L,R) ch, ~192.00 kbps avg | Профессиональный (многоголосый закадровый) ТРК «Петербург-Пятый канал»
Аудио №2: 48 kHz, AC3, 3/2 (L,C,R,l,r) + LFE ch, ~384.00 kbps avg | English-

Дополнительно

За запись звука спасибо MacSim47.
Убран логотип канала Canal+ Film HD.
Рип от HPotter

MediaInfo

General
Unique ID : 171925857522330570079742988323852314532 (0x8157B7398911F63C81083A78DD96E7A4)
Complete name : D:\Фильмы\Shirley.Valentine.1989.720p.HDTV.Rus.Eng.HDCLUB.mkv
Format : Matroska
Format version : Version 4 / Version 2
File size : 7.41 GiB
Duration : 1h 44mn
Overall bit rate : 10.2 Mbps
Encoded date : UTC 2014-02-27 06:42:48
Writing application : mkvmerge v6.6.0 ('The Edge Of The In Between') built on Dec 1 2013 17:55:00
Writing library : libebml v1.3.0 + libmatroska v1.4.1
Video
ID : 1
Format : AVC
Format/Info : Advanced Video Codec
Format profile : High@L4.1
Format settings, CABAC : Yes
Format settings, ReFrames : 9 frames
Codec ID : V_MPEG4/ISO/AVC
Duration : 1h 44mn
Bit rate : 9 412 Kbps
Width : 1 280 pixels
Height : 720 pixels
Display aspect ratio : 16:9
Frame rate mode : Constant
Frame rate : 25.000 fps
Color space : YUV
Chroma subsampling : 4:2:0
Bit depth : 8 bits
Scan type : Progressive
Bits/(Pixel*Frame) : 0.409
Stream size : 6.85 GiB (92%)
Title : Shirley Valentine 1989
Writing library : x264 core 142 r2389 956c8d8
Encoding settings : cabac=1 / ref=9 / deblock=1:-3:-3 / analyse=0x3:0x133 / me=umh / subme=10 / psy=1 / psy_rd=1.10:0.00 / mixed_ref=1 / me_range=32 / chroma_me=1 / trellis=2 / 8x8dct=1 / cqm=0 / deadzone=21,11 / fast_pskip=1 / chroma_qp_offset=-2 / threads=16 / lookahead_threads=2 / sliced_threads=0 / nr=0 / decimate=1 / interlaced=0 / bluray_compat=0 / constrained_intra=0 / bframes=7 / b_pyramid=2 / b_adapt=2 / b_bias=0 / direct=3 / weightb=1 / open_gop=0 / weightp=2 / keyint=250 / keyint_min=23 / scenecut=40 / intra_refresh=0 / rc_lookahead=40 / rc=crf / mbtree=1 / crf=18.0 / qcomp=0.70 / qpmin=0 / qpmax=40 / qpstep=4 / vbv_maxrate=50000 / vbv_bufsize=50000 / crf_max=0.0 / nal_hrd=none / filler=0 / ip_ratio=1.25 / aq=1:0.70
Language : English
Default : Yes
Forced : No
Audio #1
ID : 2
Format : AC-3
Format/Info : Audio Coding 3
Mode extension : CM (complete main)
Format settings, Endianness : Big
Codec ID : A_AC3
Duration : 1h 44mn
Bit rate mode : Constant
Bit rate : 192 Kbps
Channel count : 2 channels
Channel positions : Front: L R
Sampling rate : 48.0 KHz
Bit depth : 16 bits
Compression mode : Lossy
Delay relative to video : 32ms
Stream size : 143 MiB (2%)
Title : AC3 2.0 @ 192 kbps - ТРК «Петербург-Пятый канал»
Language : Russian
Default : Yes
Forced : No
Audio #2
ID : 3
Format : AC-3
Format/Info : Audio Coding 3
Mode extension : CM (complete main)
Format settings, Endianness : Big
Codec ID : A_AC3
Duration : 1h 44mn
Bit rate mode : Constant
Bit rate : 384 Kbps
Channel count : 6 channels
Channel positions : Front: L C R, Side: L R, LFE
Sampling rate : 48.0 KHz
Bit depth : 16 bits
Compression mode : Lossy
Delay relative to video : 32ms
Stream size : 286 MiB (4%)
Title : AC3 5.1 @ 384 kbps
Language : English
Default : No
Forced : No

Скриншоты


_________________
Показать сообщения:    

Текущее время: Сегодня 11:27

Часовой пояс: GMT



Вы не можете начинать темы
Вы не можете отвечать на сообщения
Вы не можете редактировать свои сообщения
Вы не можете удалять свои сообщения
Вы не можете голосовать в опросах
Вы не можете прикреплять файлы к сообщениям
Вы не можете скачивать файлы
Наши партнеры: интернет магазин Ивановского трикотажа textilla.ru