Важное объявление!
У Нас Все раздачи мультитрекерные, при нуле пиров в релизах, можете смело вставать на закачку!
 
Автор Сообщение

димитри37

Стаж:
3 года 8 месяцев
Сообщений:
1237

Репутация: 127

[+] [-]
Вне форума [Профиль] [ЛС]

Ширли-мырли
Жанр: комедия, фарс
Год выпуска: 1995
Продолжительность: 02:15:15
Режиссёр: Владимир Меньшов
В ролях: Валерий Гаркалин, Вера Алентова, Инна Чурикова, Армен Джигарханян, Игорь Угольников, Сергей Баталов, Лев Борисов, Ролан Быков, Леонид Куравлёв, Любовь Полищук, Олег Ефремов, Олег Табаков, Александр Ворошило, Нонна Мордюкова, Сергей Арцибашев, Евгений Весник, Евгений Герчаков, Аркадий Коваль, Евгений Александров, Александр Панкратов-Чёрный, Михаил Кокшенов, Нина Алисова, Всеволод Санаев, Ирина Апексимова, Валерий Николаев, Сергей Габриэлян, Татьяна Кравченко, Юрий Чернов, Борис Сморчков, Юрий Кузьменков, Владимир Меньшов, Виктор Гайнов, Алексей Булдаков, Марина Голуб, Алексей Якубов, Елена Бушуева, Александр Никитченко, Пётр Меркурьев, Анатолий Калмыков, Клавдия Козлёнкова
Описание: В постперестроечной России, в Сибири найден алмаз гигантской величины, оцениваемый в сумму, которая позволит оплатить государственные долги и проживание всех россиян на Канарах в течении трех лет. Названный за это "Спасителем России", алмаз транспортируется в Москву - и по дороге похищается мафией. Но на каждый хитрый болт найдется своя гайка с левой резьбой - у мафии алмаз тоже украден. Кто украл - выясняется быстро, и на слишком удачливого и самостоятельного жулика начинают охотится и лишившиеся куша мафиози, и родная российская милиция...
Сценарий: Владимир Меньшов, Виталий Москаленко, Андрей Самсонов
Оператор: Вадим Алисов
Художник: Валерий Филиппов
Награды: главный приз по разряду зрелищного кино на первом конкурсе сценариев "Надежда" на Международном кинорынке (Ялта, 1995); приз за лучшую мужскую роль В. Гаркалину на фестивале "Киношок" (Анапа, 1995)
Ограничения на просмотр: зрителям, достигшим 14 лет

Качество видео: DVDRip
Формат видео: AVI
Видео: 704x528 (1.33:1), 25 fps, XviD 1.2.1, 1865 kbps avg, 0.20 bit/pixel
Аудио: 48 kHz, AC3 Dolby Digital, 3/2 (L,C,R,l,r) + LFE ch, 448.00 kbps avg

MediaInfo

Полное имя : Shirli-myrli.avi
Формат : AVI
Формат/Информация : Audio Video Interleave
Профиль формата : OpenDML
Размер файла : 2,20 Гбайт
Продолжительность : 2 ч. 15 м.
Общий поток : 2325 Кбит/сек
Программа кодирования : VirtualDubMod 1.5.10.3 (build 2550/release)
Библиотека кодирования : VirtualDubMod build 2550/release
Видео
Идентификатор : 0
Формат : MPEG-4 Visual
Профиль формата : Advanced Simple@L5
Параметр BVOP формата : 2
Параметр QPel формата : Нет
Параметр GMC формата : Без точки перехода
Параметр матрицы формата : Выборочная
Идентификатор кодека : XVID
Идентификатор кодека/Подсказка : XviD
Продолжительность : 2 ч. 15 м.
Битрейт : 1865 Кбит/сек
Ширина : 704 пикселя
Высота : 528 пикселей
Соотношение сторон : 4:3
Частота кадров : 25,000 кадров/сек
Цветовое пространство : YUV
Субдискретизация насыщенности : 4:2:0
Битовая глубина : 8 бит
Тип развёртки : Прогрессивная
Метод сжатия : С потерями
Бит/(Пиксели*Кадры) : 0.201
Размер потока : 1,76 Гбайт (80%)
Библиотека кодирования : XviD 1.2.1 (UTC 2008-12-04)
Аудио
Идентификатор : 1
Формат : AC-3
Формат/Информация : Audio Coding 3
Расширение режима : CM (complete main)
Параметр Endianness формата : Big
Идентификатор кодека : 2000
Продолжительность : 2 ч. 15 м.
Вид битрейта : Постоянный
Битрейт : 448 Кбит/сек
Каналы : 6 каналов
Расположение каналов : Front: L C R, Side: L R, LFE
Частота : 48,0 КГц
Битовая глубина : 16 бит
Метод сжатия : С потерями
Размер потока : 433 Мбайт (19%)
Выравнивание : Разделение по промежуткам
Продолжительность промежутка : 40 мс. (1,00 видеокадр)
Время предзагрузки промежутка : 500 мс.

Сравнение

http://rutracker.org/forum/viewtopic.php?t=4017012 - с конкурентом
http://screenshotcomparison.com/comparison/2304/ + перекроп слева-справа
-
Показать сообщения:    

Текущее время: Сегодня 19:45

Часовой пояс: GMT



Вы не можете начинать темы
Вы не можете отвечать на сообщения
Вы не можете редактировать свои сообщения
Вы не можете удалять свои сообщения
Вы не можете голосовать в опросах
Вы не можете прикреплять файлы к сообщениям
Вы не можете скачивать файлы