Важное объявление!
У Нас Все раздачи мультитрекерные, при нуле пиров в релизах, можете смело вставать на закачку!
 
Автор Сообщение

HUNTER

Стаж:
4 года 4 месяца
Сообщений:
56734

Репутация: 101

[+] [-]
Вне форума [Профиль] [ЛС]

Шейн / Shane
Страна: США
Студия: Paramount Pictures Corporation
Жанр: вестерн
Год выпуска: 1953
Продолжительность: 01:58:03
Перевод: Авторский (одноголосый закадровый) С. Кузнецов
Cубтитры: английские
Оригинальная аудиодорожка: английский
Режиссер: Джордж Стивенс / George Stevens
В ролях: Бен Джонсон, Алан Лэдд, Джин Артур, Элиша Кук мл., Ван Хефлин, Брэндон Де Уайлд
Описание: В этих местах люди давно уже не выясняют отношения с помощью оружия, поэтому так необычно было увидеть странника, вооруженного револьвером. Вежливый человек, назвавшийся Шейном, принял предложение Джо Старета и остался на ферме помогать по хозяйству. Но нет мира на этой земле. Братья Райкеры, получившие крупный заказ на поставку говядины, всеми правдами и неправдами пытаются выжить фермеров с их участков. Райкерам нужно очень много земли, у них грандиозные планы. Но фермеры не хотят бросать землю, в которую уже вложено столько труда, они пытаются объединиться, чтоб сообща противостоять Райкерам и их головорезам. Но сколько можно жить в атмосфере страха и насилия? Давление растет - вытаптываются поля, гибнут животные. Кто-то не выдерживает... Райкеры торопятся, из Шайена они приглашают профессионального стрелка, Джека Вилсона, очень опасного человека, который и совершает первое убийство. Джо Старет - следующий. Все устроено так, что Старет не может уклониться от встречи. И только Шейн понимает, что Вилсона Старету не победить. Старету сданы крапленые карты...

Sample
Тип релиза: BDRemux 1080p
Контейнер: MKV
Видео: MPEG4 AVC Video, H264, 1920x1080, 23.976 fps, 29692 Kbps
Аудио: Russian (AC3, 2 ch, 192 kbps, 16 bits, 48.0 KHz) - С. Кузнецов
Аудио 2: English (DTS-HD MA, 2 ch, 2053 kbps, 24 bits, 48.0 KHz / DTS core: 2 ch, 1509 kbps, 24 bits, 48.0 KHz) - оригинал
Аудио 3: English (AC3, 2 ch, 192 kbps, 16 bits, 48.0 KHz) - комментарии
Формат субтитров: softsub (SRT)

MediaInfo

General
Unique ID : 228677780216960564582876408021031374256 (0xAC09BD0B4B4C12DCABBCD4BD29B8CDB0)
Complete name : L:\Shane 1953\Shane 1953 BDRemux 1080p.mkv
Format : Matroska
Format version : Version 4 / Version 2
File size : 26.5 GiB
Duration : 1h 58mn
Overall bit rate mode : Variable
Overall bit rate : 32.1 Mbps
Encoded date : UTC 2015-01-09 20:46:57
Writing application : mkvmerge v6.1.0 ('Old Devil') built on Mar 2 2013 14:32:37
Writing library : libebml v1.3.0 + libmatroska v1.4.0
Video
ID : 1
Format : AVC
Format/Info : Advanced Video Codec
Format profile : High@L4.1
Format settings, CABAC : Yes
Format settings, ReFrames : 2 frames
Format settings, GOP : M=1, N=10
Codec ID : V_MPEG4/ISO/AVC
Duration : 1h 58mn
Bit rate mode : Variable
Width : 1 920 pixels
Height : 1 080 pixels
Display aspect ratio : 16:9
Frame rate mode : Constant
Frame rate : 23.976 fps
Color space : YUV
Chroma subsampling : 4:2:0
Bit depth : 8 bits
Scan type : Progressive
Language : English
Default : Yes
Forced : Yes
Audio #1
ID : 2
Format : AC-3
Format/Info : Audio Coding 3
Mode extension : CM (complete main)
Format settings, Endianness : Big
Codec ID : A_AC3
Duration : 1h 58mn
Bit rate mode : Constant
Bit rate : 192 Kbps
Channel count : 2 channels
Channel positions : Front: L R
Sampling rate : 48.0 KHz
Bit depth : 16 bits
Compression mode : Lossy
Stream size : 162 MiB (1%)
Title : С. Кузнецов
Language : Russian
Default : Yes
Forced : Yes
Audio #2
ID : 3
Format : DTS
Format/Info : Digital Theater Systems
Format profile : MA / Core
Mode : 16
Format settings, Endianness : Big
Codec ID : A_DTS
Duration : 1h 58mn
Bit rate mode : Variable
Bit rate : Unknown / 1 509 Kbps
Channel count : 2 channels
Channel positions : Front: L R
Sampling rate : 48.0 KHz
Bit depth : 24 bits
Compression mode : Lossless / Lossy
Language : English
Default : No
Forced : No
Audio #3
ID : 4
Format : AC-3
Format/Info : Audio Coding 3
Mode extension : CM (complete main)
Format settings, Endianness : Big
Codec ID : A_AC3
Duration : 1h 58mn
Bit rate mode : Constant
Bit rate : 192 Kbps
Channel count : 2 channels
Channel positions : Front: L R
Sampling rate : 48.0 KHz
Bit depth : 16 bits
Compression mode : Lossy
Stream size : 162 MiB (1%)
Title : комментарии
Language : English
Default : No
Forced : No
Text
ID : 5
Format : UTF-8
Codec ID : S_TEXT/UTF8
Codec ID/Info : UTF-8 Plain Text
Language : English
Default : No
Forced : No

Скриншоты


_________________
Показать сообщения:    

Текущее время: Сегодня 10:54

Часовой пояс: GMT



Вы не можете начинать темы
Вы не можете отвечать на сообщения
Вы не можете редактировать свои сообщения
Вы не можете удалять свои сообщения
Вы не можете голосовать в опросах
Вы не можете прикреплять файлы к сообщениям
Вы не можете скачивать файлы