Важное объявление!
У Нас Все раздачи мультитрекерные, при нуле пиров в релизах, можете смело вставать на закачку!
 
Автор Сообщение

HUNTER

Стаж:
4 года 4 месяца
Сообщений:
56808

Репутация: 101

[+] [-]
Вне форума [Профиль] [ЛС]

Шарлотта Земляничка: Весна для Землянички Шарлотты / Strawberry Shortcake: Spring for Strawberry Shortcake-
Страна: США
Жанр: мультфильм, детский, семейный
Продолжительность: 00:45:12
Год выпуска: 2003
Перевод 1: Профессиональный (дублированный) - Канал "TiJi"
Перевод 2: Профессиональный (многоголосый закадровый)
Русские субтитры: нет-Режиссёр: Луис Гассин / Louis Gassin
Роли озвучивали: Сара Хейнк, ДеЖаре Барфилд, Дэниэл Кэнвилд, Нилс Хааланд, Джей Хэнсон, Ханна Кослоски, Сара Кослоски, Кэти Лабоски, Джерри Лондж, Корк Рамер- | Релиз: -Описание: Добро пожаловать в страну нашей любимой Землянички, где всегда всё растёт и становится лучше. После продолжительной и суровой зимы, ягодные жители готовятся к пробуждению, чтобы не пропустить долгожданный первый день весны. И вот на календаре заветное число, но несмотря на это, всё ещё идёт снег, дует холодный ветер и кругом одни сосульки. У Землянички сложилось впечатление, будто весна решила не приходить в этом году, поэтому вместе с Изюминкой и Апельсинкой она отправилась на её поиски. Как оказалось, Весна была маленькой и капризной девочкой, которой вовсе не хотелось работать. Но подружки убеждают её, что без Весны всё может погибнуть и что трудиться тоже бывает весело.-Семпл: http://sendfile.su/1191280-Качество: DVDRip-AVC
Формат: MKV
Видео: 714x480 (4:3) @ 636x480, 23.976 fps, AVC, ~1952 Kbps, 0.238 bits/pixel
Аудио 1: Русский, AC3, 2/0 (L,R) ch, 192 kbps - Дублированный | Канал TiJi
Аудио 2: Русский, AC3, 2/0 (L,R) ch, 192 kbps - Закадровый
Аудио 3: English, AC3, 2/0 (L,R) ch, 192 kbps
Субтитры: English

MediaInfo

x264 log
x264 [info]: 714x480p 8:9 @ 24000/1001 fps (cfr)
x264 [info]: using SAR=8/9
x264 [info]: using cpu capabilities: MMX2 SSE2Fast SSSE3 SSE4.2 AVX
x264 [info]: profile High, level 4.0
x264 [info]: cabac=1 ref=16 deblock=1:-1:-1 analyse=0x3:0x133 me=umh subme=11 psy=1 fade_compensate=0.00 psy_rd=1.00:0.00 mixed_ref=1 me_range=48 chroma_me=1 trellis=2 8x8dct=1 cqm=0 deadzone=21,11 fast_pskip=0 chroma_qp_offset=-2 threads=12 lookahead_threads=3 sliced_threads=0 nr=0 decimate=1 interlaced=0 bluray_compat=0 constrained_intra=0 fgo=0 bframes=14 b_pyramid=2 b_adapt=2 b_bias=0 direct=3 weightb=1 open_gop=0 weightp=2 keyint=250 keyint_min=23 scenecut=40 intra_refresh=0 rc=crf mbtree=0 crf=16.0000 qcomp=0.60 qpmin=0 qpmax=69 qpstep=4 ip_ratio=1.40 pb_ratio=1.30 aq=1:0.90
x264 [info]: frame I:568 Avg QP:16.27 size: 65679
x264 [info]: frame P:16546 Avg QP:17.46 size: 22570
x264 [info]: frame B:47909 Avg QP:18.46 size: 5549
x264 [info]: consecutive B-frames: 4.0% 4.6% 13.1% 28.2% 22.8% 14.5% 6.4% 3.8% 1.2% 0.7% 0.2% 0.2% 0.2% 0.2% 0.1%
x264 [info]: mb I I16..4: 3.2% 59.9% 36.9%
x264 [info]: mb P I16..4: 0.4% 10.6% 2.0% P16..4: 29.5% 27.6% 15.1% 2.9% 0.4% skip:11.5%
x264 [info]: mb B I16..4: 0.1% 0.8% 0.2% B16..8: 25.5% 11.3% 3.5% direct: 4.2% skip:54.5% L0:43.6% L1:47.1% BI: 9.3%
x264 [info]: 8x8 transform intra:77.0% inter:48.2%
x264 [info]: direct mvs spatial:100.0% temporal:0.0%
x264 [info]: coded y,uvDC,uvAC intra: 92.3% 97.6% 94.8% inter: 20.6% 26.6% 13.1%
x264 [info]: i16 v,h,dc,p: 42% 18% 10% 30%
x264 [info]: i8 v,h,dc,ddl,ddr,vr,hd,vl,hu: 8% 8% 18% 11% 11% 10% 10% 11% 13%
x264 [info]: i4 v,h,dc,ddl,ddr,vr,hd,vl,hu: 10% 12% 5% 10% 14% 12% 13% 10% 14%
x264 [info]: i8c dc,h,v,p: 56% 21% 12% 11%
x264 [info]: Weighted P-Frames: Y:3.2% UV:2.9%
x264 [info]: ref P L0: 44.7% 4.9% 17.3% 6.0% 5.4% 4.0% 3.7% 2.1% 2.2% 1.8% 1.6% 1.5% 1.4% 1.3% 1.2% 0.9%
x264 [info]: ref B L0: 67.5% 12.6% 5.3% 3.1% 2.2% 1.9% 1.6% 1.1% 0.9% 0.9% 0.8% 0.8% 0.6% 0.5% 0.3%
x264 [info]: ref B L1: 93.7% 6.3%
x264 [info]: kb/s:1995.80
x264 [info]: encoded 65023 frames, 9.35 fps, 1995.80 kb/s, duration 1:55:54.47
GeneralUnique ID : 245747850764894549573295954960382958692 (0xB8E150802B0F810F9FD63ACF21181C64)Complete name : Strawberry.Shortcake-Spring.for.Strawberry.Shortcake.2003.DVDRip.AVC-rutracker.xfiles.mkvFormat : MatroskaFormat version : Version 4 / Version 2File size : 834 MiBDuration : 45mn 12sOverall bit rate : 2 579 KbpsMovie name : Strawberry.Shortcake-Spring.for.Strawberry.Shortcake.2003.DVDRip.AVC-rutracker.xfilesEncoded date : UTC 2016-01-08 19:37:27Writing application : mkvmerge v8.3.0 ('Over the Horizon') 64bitWriting library : libebml v1.3.1 + libmatroska v1.4.2Cover : YesAttachments : Cover.jpg / DVD_cover.jpg / Inlay.jpg / x264.log
VideoID : 1Format : AVCFormat/Info : Advanced Video CodecFormat profile : High@L4Format settings, CABAC : YesFormat settings, ReFrames : 16 framesCodec ID : V_MPEG4/ISO/AVCDuration : 45mn 12sBit rate : 1 952 KbpsWidth : 714 pixelsHeight : 480 pixelsDisplay aspect ratio : 4:3Frame rate mode : ConstantFrame rate : 23.976 (24000/1001) fpsColor space : YUVChroma subsampling : 4:2:0Bit depth : 8 bitsScan type : ProgressiveBits/(Pixel*Frame) : 0.238Stream size : 631 MiB (76%)Title : http://rutracker.org/forum/viewtopic.php?t=5147123Writing library : x264 core 148 r2638kMod 7599210Encoding settings : cabac=1 / ref=16 / deblock=1:-1:-1 / analyse=0x3:0x133 / me=umh / subme=11 / psy=1 / fade_compensate=0.00 / psy_rd=1.00:0.00 /mixed_ref=1 / me_range=48 / chroma_me=1 / trellis=2 / 8x8dct=1 / cqm=0 / deadzone=21,11 / fast_pskip=0 / chroma_qp_offset=-2 / threads=12 / lookahead_threads=3 /sliced_threads=0 / nr=0 / decimate=1 / interlaced=0 / bluray_compat=0 / constrained_intra=0 / fgo=0 / bframes=14 / b_pyramid=2 / b_adapt=2 / b_bias=0 / direct=3 /weightb=1 / open_gop=0 / weightp=2 / keyint=250 / keyint_min=23 / scenecut=40 / intra_refresh=0 / rc=crf / mbtree=0 / crf=16.0000 / qcomp=0.60 / qpmin=0 / qpmax=69 /qpstep=4 / ip_ratio=1.40 / pb_ratio=1.30 / aq=1:0.90Language : EnglishDefault : YesForced : No
Audio #1ID : 2Format : AC-3Format/Info : Audio Coding 3Mode extension : CM (complete main)Format settings, Endianness : BigCodec ID : A_AC3Duration : 45mn 12sBit rate mode : ConstantBit rate : 192 KbpsChannel(s) : 2 channelsChannel positions : Front: L RSampling rate : 48.0 KHzFrame rate : 31.250 fps (1536 spf)Compression mode : LossyStream size : 62.1 MiB (7%)Title : Дублированный | Канал TiJiLanguage : RussianDefault : YesForced : No
Audio #2ID : 3Format : AC-3Format/Info : Audio Coding 3Mode extension : CM (complete main)Format settings, Endianness : BigCodec ID : A_AC3Duration : 45mn 12sBit rate mode : ConstantBit rate : 192 KbpsChannel(s) : 2 channelsChannel positions : Front: L RSampling rate : 48.0 KHzFrame rate : 31.250 fps (1536 spf)Compression mode : LossyStream size : 62.1 MiB (7%)Title : ЗакадровыйLanguage : RussianDefault : NoForced : No
Audio #3ID : 4Format : AC-3Format/Info : Audio Coding 3Mode extension : CM (complete main)Format settings, Endianness : BigCodec ID : A_AC3Duration : 45mn 12sBit rate mode : ConstantBit rate : 192 KbpsChannel(s) : 2 channelsChannel positions : Front: L RSampling rate : 48.0 KHzFrame rate : 31.250 fps (1536 spf)Compression mode : LossyStream size : 62.1 MiB (7%)Title : OriginalLanguage : EnglishDefault : NoForced : No
TextID : 5Format : UTF-8Codec ID : S_TEXT/UTF8Codec ID/Info : UTF-8 Plain TextLanguage : EnglishDefault : NoForced : No
Menu00:00:00.000 : en:1. Spring Time00:11:09.033 : en:2. Work Together00:21:50.733 : en:3. Strawberry Jammin'00:34:16.166 : en:4. Zing in Spring

Скриншоты


_________________
Показать сообщения:    

Текущее время: Сегодня 11:03

Часовой пояс: GMT



Вы не можете начинать темы
Вы не можете отвечать на сообщения
Вы не можете редактировать свои сообщения
Вы не можете удалять свои сообщения
Вы не можете голосовать в опросах
Вы не можете прикреплять файлы к сообщениям
Вы не можете скачивать файлы