Важное объявление!
У Нас Все раздачи мультитрекерные, при нуле пиров в релизах, можете смело вставать на закачку!
 
Автор Сообщение

HUNTER

Стаж:
4 года 4 месяца
Сообщений:
56734

Репутация: 101

[+] [-]
Вне форума [Профиль] [ЛС]

--Шанхайский полдень / Shanghai Noon«The first kung-fu western ever»--
Страна: США, Гонконг
Жанр: боевик, комедия, приключения, вестерн
Год выхода: 2000
Продолжительность: 01:50:17
Перевод 1: профессиональный (двухголосый, закадровый) (R5)
Перевод 2: профессиональный (многоголосый, закадровый) (т/к Россия / ТНТ / Ren-TV)
Перевод 3: авторский (Андрей Гаврилов)
Перевод 4: авторский (Андрей Дольский)
Перевод 5: авторский (Юрий Живов)
Субтитры: русские, английские (2 вида, комментарии)
Оригинальная аудиодорожка: английская
Режиссер: Том Дей / Tom Dey
В ролях: Джеки Чан, Оуэн Уилсон, Люси Лью, Брэндон Мэрилл, Роджер Йуан, Ксандер Беркли, Юй Жун Гуан, Я Хи Куи, Эрик Чен, Джейсон Коннери
О фильме: Когда прекрасную китайскую принцессу похищают, Император отправляет на Дикий Запад троих самых верных и искусных телохранителей. Чон Ванг, естественно…не оказывается в их числе. Но тайными путями ему все-таки удается попасть в воинственную делегацию и оказаться в самом сердце Америки и непредсказуемых событий.
Вместе со случайным напарником китайский телохранитель попадает во всевозможные переделки; между делом, он помогает племени Сиу, выкуривает трубку мира, и тут же оказывается на тропе войны, по которой пробегают его многочисленные враги.
Дополнительно: Рип с американского трансфера. Присутствует английский хардсаб на китайскую речь (в немецком трансфере был немецкий хардсаб).

Релиз от -
Автор: Gellard
Сэмпл: скачать
Качество: BDRip 720p (источник: HDTracker / Blu-Ray Remux / 1080p)
Формат: MKV
Видео: 1280x546 (2.35:1), 23.976 fps, x264, 11299 kbps avg, 0.657 bit/pixel
Аудио #1: 48 kHz, AC3 Dolby Digital, 3/2 (L,C,R,l,r) + LFE ch, 448.00 kbps avg |Двухголосый (R5)|
Аудио #2: 48 kHz, AC3 Dolby Digital, 3/2 (L,C,R,l,r) + LFE ch, 448.00 kbps avg |Многоголосый (т/к Россия / ТНТ / Ren-TV)|
Аудио #3: 48 kHz, AC3 Dolby Digital, 3/2 (L,C,R,l,r) + LFE ch, 448.00 kbps avg |Авторский (Андрей Гаврилов)|
Аудио #4: 48 kHz, AC3 Dolby Digital, 2/0 (L,R) ch, 192 kbps avg |Авторский (Андрей Дольский)|
Аудио #5: 48 kHz, AC3 Dolby Digital, 2/0 (L,R) ch, 192 kbps avg |Авторский (Юрий Живов)|
Аудио #6: 48 kHz, AC3 Dolby Digital, 3/2 (L,C,R,l,r) + LFE ch, 640.00 kbps avg |Оригинал|
Аудио #7: 48 kHz, AC3 Dolby Digital, 2/0 (L,R) ch, 192 kbps avg |Комментарии Джеки Чана, Оуэна Уилсона и Тома Дея|
Формат субтитров: softsub (SRT)-
-

Скриншоты

Скриншоты сравнения
http://rutracker.org/forum/viewtopic.php?t=3660143
http://screenshotcomparison.com/comparison/98429
http://rutracker.org/forum/viewtopic.php?t=1548842
http://screenshotcomparison.com/comparison/98430

MediaInfo

Код:
General
Unique ID                                : 240375260410212595700295983104538397878 (0xB4D6975851A93283BE603416C4D74CB6)
Complete name                            : D:\BDRip от HQCLUB\Shanghai.Noon.2000.720p.BluRay.5xRus.Eng.-HQCLUB.mkv
Format                                   : Matroska
Format version                           : Version 4 / Version 2
File size                                : 10.7 GiB
Duration                                 : 1h 50mn
Overall bit rate                         : 13.8 Mbps
Encoded date                             : UTC 2014-10-25 17:39:20
Writing application                      : mkvmerge v7.0.0 ('Where We Going') 32bit built on Jun  9 2014 15:08:34
Writing library                          : libebml v1.3.0 + libmatroska v1.4.1
DURATION                                 : 01:50:26.016000000
NUMBER_OF_FRAMES                         : 207063
NUMBER_OF_BYTES                          : 159024384
_STATISTICS_WRITING_APP                  : mkvmerge v7.0.0 ('Where We Going') 32bit built on Jun  9 2014 15:08:34
_STATISTICS_WRITING_DATE_UTC             : 2014-10-25 17:39:20
_STATISTICS_TAGS                         : BPS DURATION NUMBER_OF_FRAMES NUMBER_OF_BYTES
Video
ID                                       : 1
Format                                   : AVC
Format/Info                              : Advanced Video Codec
Format profile                           : High@L4.1
Format settings, CABAC                   : Yes
Format settings, ReFrames                : 11 frames
Codec ID                                 : V_MPEG4/ISO/AVC
Duration                                 : 1h 50mn
Bit rate                                 : 11.0 Mbps
Width                                    : 1 280 pixels
Height                                   : 546 pixels
Display aspect ratio                     : 2.35:1
Frame rate mode                          : Constant
Frame rate                               : 23.976 fps
Color space                              : YUV
Chroma subsampling                       : 4:2:0
Bit depth                                : 8 bits
Scan type                                : Progressive
Bits/(Pixel*Frame)                       : 0.657
Stream size                              : 8.49 GiB (80%)
Title                                    : Шанхайский полдень / Shanghai Noon (2000) BDRip 720p by HQCLUB | Encode by Gellard
Writing library                          : x264 core 142 r2431 ac76440
Encoding settings                        : cabac=1 / ref=11 / deblock=1:-2:-1 / analyse=0x3:0x113 / me=umh / subme=11 / psy=1 / psy_rd=1.00:0.00 / mixed_ref=1 / me_range=48 / chroma_me=1 / trellis=2 / 8x8dct=1 / cqm=0 / deadzone=21,11 / fast_pskip=1 / chroma_qp_offset=-4 / threads=9 / lookahead_threads=2 / sliced_threads=0 / nr=0 / decimate=1 / interlaced=0 / bluray_compat=0 / constrained_intra=0 / bframes=11 / b_pyramid=2 / b_adapt=2 / b_bias=0 / direct=1 / weightb=1 / open_gop=0 / weightp=2 / keyint=240 / keyint_min=23 / scenecut=40 / intra_refresh=0 / rc_lookahead=40 / rc=crf / mbtree=0 / crf=16.5 / qcomp=0.60 / qpmin=0 / qpmax=69 / qpstep=4 / vbv_maxrate=50000 / vbv_bufsize=62500 / crf_max=0.0 / nal_hrd=none / filler=0 / ip_ratio=1.40 / pb_ratio=1.30 / aq=1:0.90
Language                                 : English
Default                                  : Yes
Forced                                   : No
DURATION                                 : 01:50:17.611000000
NUMBER_OF_FRAMES                         : 158664
NUMBER_OF_BYTES                          : 9346581148
_STATISTICS_WRITING_APP                  : mkvmerge v7.0.0 ('Where We Going') 32bit built on Jun  9 2014 15:08:34
_STATISTICS_WRITING_DATE_UTC             : 2014-10-25 17:39:20
_STATISTICS_TAGS                         : BPS DURATION NUMBER_OF_FRAMES NUMBER_OF_BYTES
Audio #1
ID                                       : 2
Format                                   : AC-3
Format/Info                              : Audio Coding 3
Mode extension                           : CM (complete main)
Format settings, Endianness              : Big
Codec ID                                 : A_AC3
Duration                                 : 1h 50mn
Bit rate mode                            : Constant
Bit rate                                 : 448 Kbps
Channel count                            : 6 channels
Channel positions                        : Front: L C R, Side: L R, LFE
Sampling rate                            : 48.0 KHz
Bit depth                                : 16 bits
Compression mode                         : Lossy
Stream size                              : 354 MiB (3%)
Title                                    : AC3 5.1 @ 448 Kbps - Двухголосый (R5)
Language                                 : Russian
Default                                  : Yes
Forced                                   : No
Audio #2
ID                                       : 3
Format                                   : AC-3
Format/Info                              : Audio Coding 3
Mode extension                           : CM (complete main)
Format settings, Endianness              : Big
Codec ID                                 : A_AC3
Duration                                 : 1h 50mn
Bit rate mode                            : Constant
Bit rate                                 : 448 Kbps
Channel count                            : 6 channels
Channel positions                        : Front: L C R, Side: L R, LFE
Sampling rate                            : 48.0 KHz
Bit depth                                : 16 bits
Compression mode                         : Lossy
Stream size                              : 354 MiB (3%)
Title                                    : AC3 5.1 @ 448 Kbps - Многоголосый (т/к Россия / ТНТ / Ren-TV)
Language                                 : Russian
Default                                  : No
Forced                                   : No
Audio #3
ID                                       : 4
Format                                   : AC-3
Format/Info                              : Audio Coding 3
Mode extension                           : CM (complete main)
Format settings, Endianness              : Big
Codec ID                                 : A_AC3
Duration                                 : 1h 50mn
Bit rate mode                            : Constant
Bit rate                                 : 448 Kbps
Channel count                            : 6 channels
Channel positions                        : Front: L C R, Side: L R, LFE
Sampling rate                            : 48.0 KHz
Bit depth                                : 16 bits
Compression mode                         : Lossy
Stream size                              : 354 MiB (3%)
Title                                    : AC3 5.1 @ 448 Kbps - Авторский (Андрей Гаврилов)
Language                                 : Russian
Default                                  : No
Forced                                   : No
Audio #4
ID                                       : 5
Format                                   : AC-3
Format/Info                              : Audio Coding 3
Mode extension                           : CM (complete main)
Format settings, Endianness              : Big
Codec ID                                 : A_AC3
Duration                                 : 1h 50mn
Bit rate mode                            : Constant
Bit rate                                 : 192 Kbps
Channel count                            : 2 channels
Channel positions                        : Front: L R
Sampling rate                            : 48.0 KHz
Bit depth                                : 16 bits
Compression mode                         : Lossy
Stream size                              : 152 MiB (1%)
Title                                    : AC3 2.0 @ 192 Kbps - Авторский (Андрей Дольский)
Language                                 : Russian
Default                                  : No
Forced                                   : No
Audio #5
ID                                       : 6
Format                                   : AC-3
Format/Info                              : Audio Coding 3
Mode extension                           : CM (complete main)
Format settings, Endianness              : Big
Codec ID                                 : A_AC3
Duration                                 : 1h 50mn
Bit rate mode                            : Constant
Bit rate                                 : 192 Kbps
Channel count                            : 2 channels
Channel positions                        : Front: L R
Sampling rate                            : 48.0 KHz
Bit depth                                : 16 bits
Compression mode                         : Lossy
Stream size                              : 152 MiB (1%)
Title                                    : AC3 2.0 @ 192 Kbps - Авторский (Юрий Живов)
Language                                 : Russian
Default                                  : No
Forced                                   : No
Audio #6
ID                                       : 7
Format                                   : AC-3
Format/Info                              : Audio Coding 3
Mode extension                           : CM (complete main)
Format settings, Endianness              : Big
Codec ID                                 : A_AC3
Duration                                 : 1h 50mn
Bit rate mode                            : Constant
Bit rate                                 : 640 Kbps
Channel count                            : 6 channels
Channel positions                        : Front: L C R, Side: L R, LFE
Sampling rate                            : 48.0 KHz
Bit depth                                : 16 bits
Compression mode                         : Lossy
Stream size                              : 506 MiB (5%)
Title                                    : AC3 5.1 @ 640 Kbps - Оригинал
Language                                 : English
Default                                  : No
Forced                                   : No
Audio #7
ID                                       : 8
Format                                   : AC-3
Format/Info                              : Audio Coding 3
Mode extension                           : CM (complete main)
Format settings, Endianness              : Big
Codec ID                                 : A_AC3
Duration                                 : 1h 50mn
Bit rate mode                            : Constant
Bit rate                                 : 192 Kbps
Channel count                            : 2 channels
Channel positions                        : Front: L R
Sampling rate                            : 48.0 KHz
Bit depth                                : 16 bits
Compression mode                         : Lossy
Stream size                              : 152 MiB (1%)
Title                                    : AC3 2.0 @ 192 Kbps - Комментарии Джеки Чана, Оуэна Уилсона и Тома Дея
Language                                 : English
Default                                  : No
Forced                                   : No
Text #1
ID                                       : 9
Format                                   : UTF-8
Codec ID                                 : S_TEXT/UTF8
Codec ID/Info                            : UTF-8 Plain Text
Language                                 : Russian
Default                                  : No
Forced                                   : No
Text #2
ID                                       : 10
Format                                   : UTF-8
Codec ID                                 : S_TEXT/UTF8
Codec ID/Info                            : UTF-8 Plain Text
Language                                 : English
Default                                  : No
Forced                                   : No
Text #3
ID                                       : 11
Format                                   : UTF-8
Codec ID                                 : S_TEXT/UTF8
Codec ID/Info                            : UTF-8 Plain Text
Title                                    : SDH
Language                                 : English
Default                                  : No
Forced                                   : No
Text #4
ID                                       : 12
Format                                   : UTF-8
Codec ID                                 : S_TEXT/UTF8
Codec ID/Info                            : UTF-8 Plain Text
Title                                    : Комментарии
Language                                 : English
Default                                  : No
Forced                                   : No
Menu
00:00:00.000                             : en:00:00:00.000
00:04:32.439                             : en:00:04:32.439
00:06:12.914                             : en:00:06:12.914
00:15:02.318                             : en:00:15:02.318
00:17:35.930                             : en:00:17:35.930
00:21:13.272                             : en:00:21:13.272
00:25:57.973                             : en:00:25:57.973
00:30:31.288                             : en:00:30:31.288
00:31:55.831                             : en:00:31:55.831
00:38:46.199                             : en:00:38:46.199
00:47:25.760                             : en:00:47:25.760
00:53:10.479                             : en:00:53:10.479
01:03:08.827                             : en:01:03:08.827
01:10:30.059                             : en:01:10:30.059
01:12:53.869                             : en:01:12:53.869
01:15:15.010                             : en:01:15:15.010
01:17:24.390                             : en:01:17:24.390
01:19:54.832                             : en:01:19:54.832
01:21:49.488                             : en:01:21:49.488
01:23:40.557                             : en:01:23:40.557
01:26:12.125                             : en:01:26:12.125
01:29:32.951                             : en:01:29:32.951
01:33:43.368                             : en:01:33:43.368
01:35:21.132                             : en:01:35:21.132
01:36:44.757                             : en:01:36:44.757
01:40:31.943                             : en:01:40:31.943
01:42:05.953                             : en:01:42:05.953
01:43:24.907                             : en:01:43:24.907

x264 log

Код:
---[Information] [24.10.2014 23:57:13] raw [info]: 1280x546p 1:1 @ 24000/1001 fps (cfr)
---[Information] [24.10.2014 23:57:13] x264 [info]: using SAR=1/1
---[Information] [24.10.2014 23:57:13] x264 [info]: using cpu capabilities: MMX2 SSE2Fast LZCNT
---[Information] [24.10.2014 23:57:13] x264 [info]: profile High, level 4.1
---[Information] [25.10.2014 10:35:00] x264 [info]: frame I:1252  Avg QP:16.56  size:141731
---[Information] [25.10.2014 10:35:00] x264 [info]: frame P:33265 Avg QP:17.88  size: 85997
---[Information] [25.10.2014 10:35:00] x264 [info]: frame B:124147 Avg QP:20.11  size: 50814
---[Information] [25.10.2014 10:35:00] x264 [info]: consecutive B-frames:  1.8%  2.5%  6.1% 20.6% 19.0% 36.6%  6.2%  2.1%  2.1%  1.7%  0.9%  0.6%
---[Information] [25.10.2014 10:35:00] x264 [info]: mb I  I16..4:  3.7% 81.5% 14.8%
---[Information] [25.10.2014 10:35:00] x264 [info]: mb P  I16..4:  0.8% 39.8%  3.3%  P16..4: 18.1% 23.3% 10.7%  0.0%  0.0%    skip: 4.0%
---[Information] [25.10.2014 10:35:00] x264 [info]: mb B  I16..4:  0.3% 13.7%  0.7%  B16..8: 31.8% 22.9%  6.5%  direct:12.4%  skip:11.5%  L0:42.7% L1:36.5% BI:20.8%
---[Information] [25.10.2014 10:35:00] x264 [info]: 8x8 transform intra:91.6% inter:60.1%
---[Information] [25.10.2014 10:35:00] x264 [info]: coded y,uvDC,uvAC intra: 94.7% 94.0% 80.9% inter: 62.4% 55.8% 22.6%
---[Information] [25.10.2014 10:35:00] x264 [info]: i16 v,h,dc,p: 64% 13%  6% 17%
---[Information] [25.10.2014 10:35:00] x264 [info]: i8 v,h,dc,ddl,ddr,vr,hd,vl,hu: 10%  7% 15%  9% 12% 12% 11% 11% 12%
---[Information] [25.10.2014 10:35:00] x264 [info]: i4 v,h,dc,ddl,ddr,vr,hd,vl,hu: 35%  5%  7%  7% 11% 10%  9%  8%  9%
---[Information] [25.10.2014 10:35:00] x264 [info]: i8c dc,h,v,p: 48% 20% 16% 16%
---[Information] [25.10.2014 10:35:00] x264 [info]: Weighted P-Frames: Y:7.5% UV:4.8%
---[Information] [25.10.2014 10:35:00] x264 [info]: ref P L0: 37.7% 12.1% 19.0%  7.7%  6.6%  4.4%  4.1%  2.3%  2.3%  1.7%  1.9%  0.2%  0.0%
---[Information] [25.10.2014 10:35:00] x264 [info]: ref B L0: 68.5% 12.9%  6.4%  3.6%  2.6%  2.2%  1.7%  1.2%  0.6%  0.3%
---[Information] [25.10.2014 10:35:00] x264 [info]: ref B L1: 91.5%  8.5%
---[Information] [25.10.2014 10:35:00] x264 [info]: kb/s:11299.04
---[Information] [25.10.2014 10:35:00] encoded 158664 frames, 4.15 fps, 11299.04 kb/s

_________________
Показать сообщения:    

Текущее время: Сегодня 17:13

Часовой пояс: GMT



Вы не можете начинать темы
Вы не можете отвечать на сообщения
Вы не можете редактировать свои сообщения
Вы не можете удалять свои сообщения
Вы не можете голосовать в опросах
Вы не можете прикреплять файлы к сообщениям
Вы не можете скачивать файлы