Важное объявление!
У Нас Все раздачи мультитрекерные, при нуле пиров в релизах, можете смело вставать на закачку!
 
Автор Сообщение

HUNTER

Стаж:
4 года 4 месяца
Сообщений:
56829

Репутация: 101

[+] [-]
Вне форума [Профиль] [ЛС]

Шансы есть / Всегда есть шанс / Вполне возможно / Chances Are
Страна: США
Жанр: фэнтези, мелодрама, комедия
Год выпуска: 1989
Продолжительность: 01:48:16
Перевод 1: Профессиональный (дублированный) Варус Видео
Перевод 2: Профессиональный (многоголосый закадровый) Шестой канал по заказу СТС
Перевод 3: Профессиональный (двухголосый закадровый) НТВ+
Cубтитры: английские
Оригинальная аудиодорожка: английский
Режиссер: Эмиль Ардолино / Emile Ardolino
В ролях: Сибилл Шепард, Роберт Дауни мл., Райан О’Нил, Мэри Стюарт Мастерсон, Кристофер МакДональд, Йозеф Зоммер, Джо Грифази, Хендерсон Форсайт, Сьюзэн Руттан, Лестер Ланин...
Описание: Молодой красивый вашингтонский юрист Луи Джеффрис имел в жизни все: отличную работу, красивую жену Коринн, ребенка. Но судьба обошлась с ним довольно жестоко. Машина неслась на огромной скорости, когда Луи переходил дорогу.
Смерть была мгновенной, и он оказался на небесах. Корин, безутешная в своем горе, в течение двадцати лет хранила ему верность. Она так и не вышла замуж. Но вот в один прекрасный день дух Луи вернулся на землю в образе молодого симпатичного журналиста Алекса Финча
Доп. информация: Исходник с переводом Шестого канала предоставил alenavova, перевод НТВ+ с раздачи alexei_d, перевод Варус Видео с раздачи team_6strun исходный звук был предоставлен Fikaloid’ом .
Сэмпл: http://multi-up.com/922930
Тип релиза: WEB-DL 720p
Контейнер: MKV
Видео: 1280x720 (16:9), 23.976 fps, AVC, ~3929 Kbps, 0.178 bits/pixel
Аудио 1: Russian, 48.0 KHz, AC3, 2 ch, 192 Kbps - Варус Видео
Аудио 2: Russian, 48.0 KHz, AC3, 2 ch, 192 Kbps - Шестой канал
Аудио 3: Russian, 48.0 KHz, AC3, 2 ch, 192 Kbps - НТВ+
Аудио 4: English, 48.0 KHz, AC3, 2 ch, 192 Kbps
Формат субтитров: softsub (SRT)

MediaInfo

General
Unique ID : 216102633637871698326197440572007729825 (0xA293DA7313513C1CB92D012FEF5D4AA1)
Complete name : D:\Chances Are.mkv
Format : Matroska
Format version : Version 4 / Version 2
File size : 3.62 GiB
Duration : 1h 48mn
Overall bit rate : 4 793 Kbps
Encoded date : UTC 2013-11-13 06:50:45
Writing application : mkvmerge v6.5.0 ('Isn't she lovely') built on Oct 20 2013 12:50:05
Writing library : libebml v1.3.0 + libmatroska v1.4.1
Video
ID : 1
Format : AVC
Format/Info : Advanced Video Codec
Format profile : High@L3.1
Format settings, CABAC : No
Format settings, ReFrames : 2 frames
Codec ID : V_MPEG4/ISO/AVC
Duration : 1h 48mn
Bit rate : 3 929 Kbps
Width : 1 280 pixels
Height : 720 pixels
Display aspect ratio : 16:9
Frame rate mode : Constant
Frame rate : 23.976 fps
Color space : YUV
Chroma subsampling : 4:2:0
Bit depth : 8 bits
Scan type : Progressive
Bits/(Pixel*Frame) : 0.178
Stream size : 2.97 GiB (82%)
Language : English
Default : Yes
Forced : No
Color primaries : BT.709
Transfer characteristics : BT.709
Matrix coefficients : BT.709
Audio #1
ID : 2
Format : AC-3
Format/Info : Audio Coding 3
Mode extension : CM (complete main)
Format settings, Endianness : Big
Codec ID : A_AC3
Duration : 1h 48mn
Bit rate mode : Constant
Bit rate : 192 Kbps
Channel count : 2 channels
Channel positions : Front: L R
Sampling rate : 48.0 KHz
Bit depth : 16 bits
Compression mode : Lossy
Stream size : 149 MiB (4%)
Title : Варус Видео
Language : Russian
Default : No
Forced : No
Audio #2
ID : 3
Format : AC-3
Format/Info : Audio Coding 3
Mode extension : CM (complete main)
Format settings, Endianness : Big
Codec ID : A_AC3
Duration : 1h 48mn
Bit rate mode : Constant
Bit rate : 192 Kbps
Channel count : 2 channels
Channel positions : Front: L R
Sampling rate : 48.0 KHz
Bit depth : 16 bits
Compression mode : Lossy
Stream size : 149 MiB (4%)
Title : Шестой канал
Language : Russian
Default : No
Forced : No
Audio #3
ID : 4
Format : AC-3
Format/Info : Audio Coding 3
Mode extension : CM (complete main)
Format settings, Endianness : Big
Codec ID : A_AC3
Duration : 1h 48mn
Bit rate mode : Constant
Bit rate : 192 Kbps
Channel count : 2 channels
Channel positions : Front: L R
Sampling rate : 48.0 KHz
Bit depth : 16 bits
Compression mode : Lossy
Stream size : 149 MiB (4%)
Title : НТВ+
Language : Russian
Default : No
Forced : No
Audio #4
ID : 5
Format : AC-3
Format/Info : Audio Coding 3
Format profile : Dolby Digital
Mode extension : CM (complete main)
Format settings, Endianness : Big
Codec ID : A_AC3
Duration : 1h 48mn
Bit rate mode : Constant
Bit rate : 192 Kbps
Channel count : 2 channels
Channel positions : Front: L R
Sampling rate : 48.0 KHz
Bit depth : 16 bits
Compression mode : Lossy
Stream size : 149 MiB (4%)
Language : English
Default : No
Forced : No
Text
ID : 6
Format : UTF-8
Codec ID : S_TEXT/UTF8
Codec ID/Info : UTF-8 Plain Text
Language : English
Default : No
Forced : No

Скриншоты


_________________
Показать сообщения:    

Текущее время: Сегодня 15:42

Часовой пояс: GMT



Вы не можете начинать темы
Вы не можете отвечать на сообщения
Вы не можете редактировать свои сообщения
Вы не можете удалять свои сообщения
Вы не можете голосовать в опросах
Вы не можете прикреплять файлы к сообщениям
Вы не можете скачивать файлы