Важное объявление!
У Нас Все раздачи мультитрекерные, при нуле пиров в релизах, можете смело вставать на закачку!
 
Автор Сообщение

HUNTER

Стаж:
4 года 4 месяца
Сообщений:
56798

Репутация: 101

[+] [-]
Вне форума [Профиль] [ЛС]

Шальные деньги: Стокгольмский нуар / Snabba cash II-
  • Год выпуска: 2012
  • Страна: Швеция
  • Жанр: боевик, триллер, драма, криминал
  • Продолжительность: 01:39:46
  • Перевод: Любительский (двухголосый закадровый)
-
  • Режиссер: Бабак Наджафи
  • Сценарий: Мария Карлссон, Питер Бирро, Бабак Наджафи, ...
  • Продюсер: Фредерик Викстрем, Джессика Аск, Клаус Бассинер, ...
  • Оператор: Ариль Вретблад
  • Композитор: Йон Экстранд
  • Художник: Роджер Розенберг, Лиза Хольмквист
  • Монтаж: Тейс Шмидт
- -
  • После трех лет заключения Ю. В. получает первую «увольнительную», но обстоятельства складываются так, что вернуться за решетку он уже не может… Скрывающийся от правосудия чилиец Хорхе планирует мега-сделку с кокаином, которая должна обогатить его раз и на всегда, но жизнь вносит жестокие коррективы в его план… Сумка с принадлежащими югославской мафии 10 миллионами крон путешествует по Стокгольму, переходя из рук в руки и оставляя за собой кровавый след…
--
  • Зрители: Норвегия 7.9 тыс.
-
  • Рейтинг:
--
  • Качество: HDRip
  • Формат: AVI
  • Видео кодек: XviD
  • Аудио кодеk: MP3
  • Видео: 720x304 (2.35:1), 24.000 fps, XviD, 846 Kbps
  • Аудио: Аудио #1: MP3, 128 Kbps, 44.1 KHz, 2 ch
-

МедиаИнфо

Код: copyText_writeLink('this.parentNode.parentNode.nextSibling.nextSibling'); General
Complete name : Shalnye.dengy.2.2012..HDRip..avi
Format : AVI
Format/Info : Audio Video Interleave
File size : 704 MiB
Duration : 1h 39mn
Overall bit rate : 987 Kbps
Writing application : VirtualDubMod 1.5.10.2 (build 2542/release)
Writing library : VirtualDubMod build 2542/release
Video
ID : 0
Format : MPEG-4 Visual
Format profile : Advanced Simple@L5
Format settings, BVOP : Yes
Format settings, QPel : No
Format settings, GMC : No warppoints
Format settings, Matrix : Default (MPEG)
Codec ID : XVID
Codec ID/Hint : XviD
Duration : 1h 39mn
Bit rate : 846 Kbps
Width : 720 pixels
Height : 304 pixels
Display aspect ratio : 2.35:1
Frame rate : 24.000 fps
Color space : YUV
Chroma subsampling : 4:2:0
Bit depth : 8 bits
Scan type : Progressive
Bits/(Pixel*Frame) : 0.161
Stream size : 604 MiB (86%)
Writing library : XviD 1.2.1 (UTC 2008-12-04)
Audio
ID : 1
Format : MPEG Audio
Format version : Version 1
Format profile : Layer 3
Mode : Joint stereo
Mode extension : MS Stereo
Codec ID : 55
Codec ID/Hint : MP3
Duration : 1h 39mn
Bit rate mode : Variable
Bit rate : 128 Kbps
Channel(s) : 2 channels
Sampling rate : 44.1 KHz
Stream size : 93.8 MiB (13%)
Alignment : Split accross interleaves
Interleave, duration : 42 ms (1.00 video frame)
Interleave, preload duration : 500 ms
Writing library : LAME3.90.
Encoding settings : -m j -V 4 -q 2 -lowpass 17.6 --abr 128
- -© Оформление by www.rustorka.com- -Не уходите с раздачи, помогайте раздавать! Скачал сам, помоги скачать другим раздавая скачанное. Помните, что файлы раздачи размещены у других пользователей, таких же качающих или уже скачавших как и Вы, поэтому если кто-то удалит файлы и торрент-файл из клиента, то велика возможность того, что материалов раздачи не останется ни у кого и другие, такие же участники сети не смогут их скачать. Давайте начинать перемены с себя.-

_________________
Показать сообщения:    

Текущее время: Сегодня 04:05

Часовой пояс: GMT



Вы не можете начинать темы
Вы не можете отвечать на сообщения
Вы не можете редактировать свои сообщения
Вы не можете удалять свои сообщения
Вы не можете голосовать в опросах
Вы не можете прикреплять файлы к сообщениям
Вы не можете скачивать файлы