Важное объявление!
У Нас Все раздачи мультитрекерные, при нуле пиров в релизах, можете смело вставать на закачку!
 
Автор Сообщение

HUNTER

Стаж:
4 года 4 месяца
Сообщений:
56783

Репутация: 101

[+] [-]
Вне форума [Профиль] [ЛС]

Шаг вперед 4 / Step Up Revolution-
Год выпуска: 2012
Страна: США
Жанр: драма, мелодрама, музыка
Продолжительность: 01:38:40
Перевод: Профессиональный (дублированный)
Субтитры: русские, английские-Режиссер: Скотт Спир / Scott Speer
В ролях: Райан Гузман, Кэтрин МакКормик, Миша Гэбриел Хэмилтон, Клеопатра Коулмэн, Стивен Стэннерт, Томми Дьюи, Питер Галлахер, Майкл «Ксено» Лэнджбек, Клаудио Пинто, Николь Дабо.
Описание: Эмили дочь очень серьезного бизнесмена имеющего влиятельных друзей по всему миру. Она решила серьезно заняться танцевальной карьерой и стать настоящей профессионалкой, а для этого переехала в Майами. Однако на новом месте практически сразу же влюбилась в обаятельного парня, который руководит своей группой любителей устраивать флэшмобы. Команда Шона стала одним из фаворитов на отборочных соревнованиях к национальному турниру, победа на котором гарантирует приличный гонорар и славу. В это же время отец Эмили задумал грандиозную перестройку района, где проживает большая часть команды Шона. Ребята решили отстоять свои дома, а к ним присоединилась Эмили.-Качество: BDRip
Контейнер: MKV
Формат 3D: Half SideBySide / Горизонтальная анаморфная стереопара
Видео кодек: x264
Аудио кодек: DTS
Видео: 1920x1080 (16:9), 23.976 fps, x264@L4.1 ~8009 kbps avg
Аудио 1: Russian 48 kHz, DTS, 3/2 (L,C,R,l,r) + LFE ch, 1509.00 kbps avg | Blu-ray
Аудио 2: Ukrainian 48 kHz, DTS, 3/2 (L,C,R,l,r) + LFE ch, 1509.00 kbps avg | Blu-ray
Аудио 3: English 48 kHz, DTS, 3/2 (L,C,R,l,r) + LFE ch, 1509.00 kbps avg | Original

Скриншоты

Медиаинфо

Общее
Формат : Matroska
Версия формата : Version 4 / Version 2
Размер файла : 8,82 Гбайт
Продолжительность : 1 ч. 38 м.
Общий поток : 12,8 Мбит/сек
Название фильма : Step Up Revolution 2012
Дата кодирования : UTC 2014-08-30 08:02:07
Программа кодирования : mkvmerge v6.6.0 ('The Edge Of The In Between') built on Dec 1 2013 17:55:00
Библиотека кодирования : libebml v1.3.0 + libmatroska v1.4.1
Видео
Идентификатор : 1
Формат : AVC
Формат/Информация : Advanced Video Codec
Профиль формата : High@L4.1
MultiView_Count : 2
MultiView_Layout : Side by Side (left eye first)
Параметр CABAC формата : Да
Параметр ReFrames формата : 4 кадра
Идентификатор кодека : V_MPEG4/ISO/AVC
Продолжительность : 1 ч. 38 м.
Битрейт : 8009 Кбит/сек
Ширина : 1920 пикселей
Высота : 1080 пикселей
Соотношение сторон : 16:9
Режим частоты кадров : Постоянный
Частота кадров : 23,976 кадра/сек
Цветовое пространство : YUV
Субдискретизация насыщенности : 4:2:0
Битовая глубина : 8 бит
Тип развёртки : Прогрессивная
Бит/(Пиксели*Кадры) : 0.161
Размер потока : 5,52 Гбайт (63%)
Заголовок : BDRip 1080p 3D HSBS
Библиотека кодирования : x264 core 128 r2216 198a7ea
Настройки программы : cabac=1 / ref=4 / deblock=1:-3:-3 / analyse=0x3:0x113 / me=umh / subme=10 / psy=1 / psy_rd=1.00:0.15 / mixed_ref=1 / me_range=32 / chroma_me=1 / trellis=2 / 8x8dct=1 / cqm=0 / deadzone=21,11 / fast_pskip=1 / chroma_qp_offset=-3 / threads=18 / lookahead_threads=3 / sliced_threads=0 / nr=0 / decimate=1 / interlaced=0 / bluray_compat=0 / constrained_intra=0 / bframes=6 / b_pyramid=2 / b_adapt=1 / b_bias=0 / direct=3 / weightb=1 / open_gop=0 / weightp=2 / keyint=250 / keyint_min=23 / scenecut=40 / intra_refresh=0 / rc_lookahead=40 / rc=crf / mbtree=1 / crf=18.0 / qcomp=0.60 / qpmin=10 / qpmax=69 / qpstep=4 / vbv_maxrate=40000 / vbv_bufsize=30000 / crf_max=0.0 / nal_hrd=none / ip_ratio=1.40 / aq=1:1.00
Язык : English
Default : Да
Forced : Нет
Аудио #1
Идентификатор : 2
Формат : DTS
Формат/Информация : Digital Theater Systems
Профиль формата : ES
Режим : 16
Параметр Endianness формата : Big
Идентификатор кодека : A_DTS
Продолжительность : 1 ч. 38 м.
Вид битрейта : Постоянный
Битрейт : 1509 Кбит/сек
Каналы : 6 каналов
Расположение каналов : Front: L C R, Side: L R, LFE
Частота : 48,0 КГц
Битовая глубина : 24 бит
Метод сжатия : С потерями
Размер потока : 1,04 Гбайт (12%)
Заголовок : Blu-ray
Язык : Russian
Default : Да
Forced : Нет
Аудио #2
Идентификатор : 3
Формат : DTS
Формат/Информация : Digital Theater Systems
Режим : 16
Параметр Endianness формата : Big
Идентификатор кодека : A_DTS
Продолжительность : 1 ч. 38 м.
Вид битрейта : Постоянный
Битрейт : 1509 Кбит/сек
Каналы : 6 каналов
Расположение каналов : Front: L C R, Side: L R, LFE
Частота : 48,0 КГц
Битовая глубина : 24 бит
Метод сжатия : С потерями
Размер потока : 1,04 Гбайт (12%)
Заголовок : Blu-ray
Язык : Ukrainian
Default : Нет
Forced : Нет
Аудио #3
Идентификатор : 4
Формат : DTS
Формат/Информация : Digital Theater Systems
Режим : 16
Параметр Endianness формата : Big
Идентификатор кодека : A_DTS
Продолжительность : 1 ч. 38 м.
Вид битрейта : Постоянный
Битрейт : 1509 Кбит/сек
Каналы : 6 каналов
Расположение каналов : Front: L C R, Side: L R, LFE
Частота : 48,0 КГц
Битовая глубина : 24 бит
Метод сжатия : С потерями
Размер потока : 1,04 Гбайт (12%)
Заголовок : Original
Язык : English
Default : Нет
Forced : Нет
Текст #1
Идентификатор : 5
Формат : UTF-8
Идентификатор кодека : S_TEXT/UTF8
Идентификатор кодека/Информация : UTF-8 Plain Text
Заголовок : Full
Язык : Russian
Default : Нет
Forced : Нет
Текст #2
Идентификатор : 6
Формат : UTF-8
Идентификатор кодека : S_TEXT/UTF8
Идентификатор кодека/Информация : UTF-8 Plain Text
Заголовок : Full
Язык : English
Default : Нет
Forced : Нет
Меню
00:00:00.000 : en:00:00:00.000
00:05:36.836 : en:00:05:36.836
00:07:25.236 : en:00:07:25.236
00:11:46.915 : en:00:11:46.915
00:14:00.465 : en:00:14:00.465
00:16:54.513 : en:00:16:54.513
00:20:22.680 : en:00:20:22.680
00:23:16.228 : en:00:23:16.228
00:27:37.990 : en:00:27:37.990
00:32:30.323 : en:00:32:30.323
00:36:58.383 : en:00:36:58.383
00:39:49.387 : en:00:39:49.387
00:42:43.478 : en:00:42:43.478
00:45:50.081 : en:00:45:50.081
00:49:37.141 : en:00:49:37.141
00:56:35.642 : en:00:56:35.642
00:58:43.979 : en:00:58:43.979
01:02:47.097 : en:01:02:47.097
01:07:05.939 : en:01:07:05.939
01:11:52.391 : en:01:11:52.391
01:15:35.072 : en:01:15:35.072
01:17:22.847 : en:01:17:22.847
01:26:01.865 : en:01:26:01.865
01:31:32.195 : en:01:31:32.195

Дополнительно

  • Видеоряд от HDChina
  • Сохранены оригинальные чаптеры как на Blu-ray

  • _________________
    Показать сообщения:    

    Текущее время: Сегодня 21:41

    Часовой пояс: GMT



    Вы не можете начинать темы
    Вы не можете отвечать на сообщения
    Вы не можете редактировать свои сообщения
    Вы не можете удалять свои сообщения
    Вы не можете голосовать в опросах
    Вы не можете прикреплять файлы к сообщениям
    Вы не можете скачивать файлы