Важное объявление!
У Нас Все раздачи мультитрекерные, при нуле пиров в релизах, можете смело вставать на закачку!
 
Автор Сообщение

HUNTER

Стаж:
4 года 4 месяца
Сообщений:
56798

Репутация: 101

[+] [-]
Вне форума [Профиль] [ЛС]

Шёпот
Страна: Россия
Студия: Паламеда продакшн
Жанр: мелодрама
Год выпуска: 2015
Продолжительность: 01:32:11
Перевод: Не требуется
Cубтитры: нет
Оригинальная аудиодорожка: русский
Режиссер: Глеб Якубовский
В ролях: Ольга Иванова, Алексей Демидов, Святослав Астрамович, Марина Денисова, Елизавета Шукова, Ирина Нарбекова, Вера Кавалерова, Дмитрий Гурбанович, Олег Ткачёв, Светлана Кожемякина, Алла Долгая
Описание: Стася Рокотова молода, привлекательна, учится в аспирантуре и собирается замуж. Но несмотря на все это, она чувствует себя очень одинокой. С женихом Игорем на первый взгляд все складывается нормально, но Стасю не покидает ощущение, что он ее не слышит или не хочет слышать. Мать вспоминает о своей младшей дочери, только когда ей что-то нужно. А со старшей сестрой Ликой, занимающейся живописью, они близки никогда не были…
Кинопоиск
Sample
Тип релиза: HDTV 1080i
Контейнер: TS
Видео: MPEG4 AVC Video, H264, 16:9, 1920x1080, 25 fps, 7866 kbps
Аудио: Russian (MP2, 2 ch, 192 kbps, 16 bits, 48.0 KHz) - оригинал

MediaInfo

General
ID : 1 (0x1)
Complete name : K:\Шёпот 2015 HDTV 1080i.ts
Format : MPEG-TS
File size : 5.46 GiB
Duration : 1h 32mn
Overall bit rate mode : Variable
Overall bit rate : 8 479 Kbps
Video
ID : 2911 (0xB5F)
Menu ID : 1009 (0x3F1)
Format : AVC
Format/Info : Advanced Video Codec
Format profile : High@L4.0
Format settings, CABAC : Yes
Format settings, ReFrames : 4 frames
Codec ID : 27
Duration : 1h 32mn
Bit rate : 7 866 Kbps
Width : 1 920 pixels
Height : 1 080 pixels
Display aspect ratio : 16:9
Frame rate : 25.000 fps
Color space : YUV
Chroma subsampling : 4:2:0
Bit depth : 8 bits
Scan type : MBAFF
Bits/(Pixel*Frame) : 0.152
Stream size : 5.07 GiB (93%)
Audio
ID : 2912 (0xB60)
Menu ID : 1009 (0x3F1)
Format : MPEG Audio
Format version : Version 1
Format profile : Layer 2
Codec ID : 3
Duration : 1h 32mn
Bit rate mode : Constant
Bit rate : 192 Kbps
Channel count : 2 channels
Sampling rate : 48.0 KHz
Compression mode : Lossy
Stream size : 127 MiB (2%)
Language : Russian

Скриншоты


_________________
Показать сообщения:    

Текущее время: Сегодня 05:30

Часовой пояс: GMT



Вы не можете начинать темы
Вы не можете отвечать на сообщения
Вы не можете редактировать свои сообщения
Вы не можете удалять свои сообщения
Вы не можете голосовать в опросах
Вы не можете прикреплять файлы к сообщениям
Вы не можете скачивать файлы