Важное объявление!
У Нас Все раздачи мультитрекерные, при нуле пиров в релизах, можете смело вставать на закачку!
 
Автор Сообщение

димитри37

Стаж:
3 года 9 месяцев
Сообщений:
1237

Репутация: 127

[+] [-]
Вне форума [Профиль] [ЛС]

Чужой район 2-
Год выпуска: 2013
Производство: Россия, «Триикс Медиа»
Жанр: Детектив, криминал
Продолжительность: ~ 00:44:00
Субтитры: нет-Режиссёр: Максим Бриус-В ролях: Денис Рожков, Кирилл Полухин, Игорь Головин, Зоя Буряк, Сергей Колос, Екатерина Проскурина, Юрий Архангельский, Алексей Нилов, Вячеслав Аркунов, Алексей Одинг, Оксана Скакун, Сергей Черапкин, Вадим Лымарь, Александр Стекольников, Сергей Рублёв, Елена Лопаткина, Геннадий Макоев, Дмитрий Белов, Сергей Малюгов, Инна Корнышева, Ринат Муталлапов, Артур Федынко, Павел Гончаров-Описание: После безупречной службы в должности инспектора полиции на окраине города Фролов готовится к триумфальному возвращению в центральный район, откуда его несправедливо изгнали. Но просто так отпустить друга не готов его напарник Свистунов. В прощальный вечер друзья решили немного покуролесить: начали с «очень вкусного самогона», потом устроили драку в ночном клубе, угнали трамвай и где-то посеяли служебное удостоверение Андрея. Утром, после разговора с начальством, Фролов понял: долгожданное повышение откладывается до лучших времен…-Качество: SATRip - AVC [Исходник DVB]
Формат: MKV
Видео кодек: H.264
Аудио кодек: AC3
Видео: x264, 720 х 416**768 х 416 (16:9), 25,000 кадр/сек, ~ 1537 Кбит/сек, ~ 0.205 bit/pixel
Аудио: AC3, 48.0 KHz, 2 канала(ов), 192 kbs

MI

Complete name : Чужой район 2.01 серия.2013.SATRip-AVC.Metla111.mkv
Format : Matroska
Format version : Version 2
File size : 557 MiB
Duration : 45mn 1s
Overall bit rate : 1 731 Kbps
Encoded date : UTC 2013-04-09 08:21:35
Writing application : mkvmerge v5.8.0 ('No Sleep / Pillow') built on Sep 2 2012 15:37:04
Writing library : libebml v1.2.3 + libmatroska v1.3.0
Video
ID : 1
Format : AVC
Format/Info : Advanced Video Codec
Format profile : High@L3.1
Format settings, CABAC : Yes
Format settings, ReFrames : 10 frames
Codec ID : V_MPEG4/ISO/AVC
Duration : 45mn 1s
Bit rate : 1 537 Kbps
Width : 720 pixels
Height : 416 pixels
Display aspect ratio : 1.85:1
Frame rate mode : Constant
Frame rate : 25.000 fps
Color space : YUV
Chroma subsampling : 4:2:0
Bit depth : 8 bits
Scan type : Progressive
Bits/(Pixel*Frame) : 0.205
Stream size : 484 MiB (87%)
Writing library : x264 core 125 r2208 d9d2288
Encoding settings : cabac=1 / ref=10 / deblock=1:-3:-3 / analyse=0x3:0x113 / me=umh / subme=9 / psy=1 / psy_rd=1.00:0.20 / mixed_ref=1 / me_range=32 / chroma_me=1 / trellis=2 / 8x8dct=1 / cqm=0 / deadzone=21,11 / fast_pskip=0 / chroma_qp_offset=-3 / threads=6 / lookahead_threads=1 / sliced_threads=0 / nr=0 / decimate=0 / interlaced=0 / bluray_compat=0 / constrained_intra=0 / bframes=8 / b_pyramid=2 / b_adapt=2 / b_bias=0 / direct=3 / weightb=1 / open_gop=0 / weightp=2 / keyint=250 / keyint_min=25 / scenecut=40 / intra_refresh=0 / rc=2pass / mbtree=0 / bitrate=1537 / ratetol=1.0 / qcomp=0.70 / qpmin=0 / qpmax=69 / qpstep=4 / cplxblur=20.0 / qblur=0.5 / ip_ratio=1.40 / pb_ratio=1.30 / aq=1:1.00
Default : Yes
Forced : No
Color primaries : BT.601 PAL
Transfer characteristics : BT.470 System B, BT.470 System G
Matrix coefficients : BT.601
Audio
ID : 2
Format : AC-3
Format/Info : Audio Coding 3
Mode extension : CM (complete main)
Format settings, Endianness : Big
Codec ID : A_AC3
Duration : 45mn 1s
Bit rate mode : Constant
Bit rate : 192 Kbps
Channel(s) : 2 channels
Channel positions : Front: L R
Sampling rate : 48.0 KHz
Bit depth : 16 bits
Compression mode : Lossy
Stream size : 61.8 MiB (11%)
Default : Yes
Forced : No

Log - x264

raw [info]: 720x416p 16:15 @ 25/1 fps (cfr)
x264 [info]: using SAR=16/15
x264 [info]: using cpu capabilities: MMX2 SSE2Fast SSSE3 FastShuffle SSE4.2
x264 [info]: profile High, level 3.1
x264 [info]: frame I:570 Avg QP:15.93 size: 48876
x264 [info]: frame P:14990 Avg QP:18.50 size: 17775
x264 [info]: frame B:51976 Avg QP:19.97 size: 4324
x264 [info]: consecutive B-frames: 1.8% 2.7% 11.3% 18.1% 21.0% 40.8% 2.9% 0.6% 0.8%
x264 [info]: mb I I16..4: 13.9% 68.0% 18.1%
x264 [info]: mb P I16..4: 0.7% 9.7% 1.3% P16..4: 37.9% 31.5% 18.4% 0.0% 0.0% skip: 0.5%
x264 [info]: mb B I16..4: 0.0% 0.4% 0.1% B16..8: 42.4% 11.4% 3.0% direct: 5.2% skip:37.5% L0:36.2% L1:44.4% BI:19.4%
x264 [info]: 8x8 transform intra:79.2% inter:48.2%
x264 [info]: direct mvs spatial:98.9% temporal:1.1%
x264 [info]: coded y,uvDC,uvAC intra: 97.5% 71.6% 41.0% inter: 29.0% 23.2% 5.1%
x264 [info]: i16 v,h,dc,p: 7% 6% 41% 46%
x264 [info]: i8 v,h,dc,ddl,ddr,vr,hd,vl,hu: 16% 11% 10% 7% 11% 12% 11% 11% 11%
x264 [info]: i4 v,h,dc,ddl,ddr,vr,hd,vl,hu: 13% 8% 3% 9% 15% 15% 13% 12% 11%
x264 [info]: i8c dc,h,v,p: 30% 28% 24% 18%
x264 [info]: Weighted P-Frames: Y:6.6% UV:3.0%
x264 [info]: ref P L0: 48.6% 13.9% 19.1% 4.2% 4.6% 2.4% 2.9% 1.3% 1.6% 1.2% 0.3% 0.0%
x264 [info]: ref B L0: 82.4% 9.5% 3.0% 1.7% 1.1% 1.0% 0.7% 0.4% 0.2%
x264 [info]: ref B L1: 95.9% 4.1%
x264 [info]: kb/s:1537.09

Скриншоты

Внимание ! Раздача ведётся путём добавления новых серий

Внимание! Раздача ведётся путём добавления новых серий; при каждом добавлении создаётся новый торрент. Чтобы начать докачку новой серии, пользователям необходимо сделать следующее:
(1) остановить скачивание,
(2) удалить старый торрент у себя из клиента (старые серии удалять не надо),
(3) скачать новый торрент и запустить его у себя в клиенте вместо старого, при этом указать клиенту путь в старую папку куда и должно происходить скачивание новых серий.
Ваш клиент при этом должен произвести хеширование (проверку) старой папки (если не производит сам - помогите ему сделать это), и будет докачивать только те серии которых у вас ещё нет. Старые серии при этом не удаляются, а продолжают раздаваться!
Если вы уже удалили старые серии, то предотвратить повторную закачку старых серий можно, отжав галочку в соответствующих местах при запуске нового торрента. По возможности, желательно не удалять старые серии как можно дольше чтобы релизёр не столько продолжал раздавать старые серии, а смог сконцентрироваться на новых.

FAQ по просмотру MKV/h.264/AAC

-
Показать сообщения:    

Текущее время: Сегодня 14:47

Часовой пояс: GMT



Вы не можете начинать темы
Вы не можете отвечать на сообщения
Вы не можете редактировать свои сообщения
Вы не можете удалять свои сообщения
Вы не можете голосовать в опросах
Вы не можете прикреплять файлы к сообщениям
Вы не можете скачивать файлы