Важное объявление!
У Нас Все раздачи мультитрекерные, при нуле пиров в релизах, можете смело вставать на закачку!
 
Автор Сообщение

HUNTER

Стаж:
4 года 4 месяца
Сообщений:
56829

Репутация: 101

[+] [-]
Вне форума [Профиль] [ЛС]

Чужой район 2-
-Год выпуска: 2013
Производство: «Триикс Медиа»
Жанр: Детектив, криминал
Продолжительность: ~ 00:44:00
Субтитры: нет-Режиссёр: Максим Бриус-В ролях: Денис Рожков, Кирилл Полухин, Игорь Головин, Зоя Буряк, Сергей Колос, Екатерина Проскурина, Юрий Архангельский, Алексей Нилов, Вячеслав Аркунов, Алексей Одинг, Оксана Скакун, Сергей Черапкин, Вадим Лымарь, Александр Стекольников, Сергей Рублёв, Елена Лопаткина, Геннадий Макоев, Дмитрий Белов, Сергей Малюгов, Инна Корнышева, Ринат Муталлапов, Артур Федынко, Павел Гончаров-Описание: После безупречной службы в должности инспектора полиции на окраине города Фролов готовится к триумфальному возвращению в центральный район, откуда его несправедливо изгнали. Но просто так отпустить друга не готов его напарник Свистунов. В прощальный вечер друзья решили немного покуролесить: начали с «очень вкусного самогона», потом устроили драку в ночном клубе, угнали трамвай и где-то посеяли служебное удостоверение Андрея. Утром, после разговора с начальством, Фролов понял: долгожданное повышение откладывается до лучших времен…-Качество: SATRip
Формат: AVI
Видео кодек: XviD
Аудио кодек: MP3
Видео: 720x384 (1.88:1), 25 fps, XviD MPEG-4, 1645 kbps avg, 0.24 bit/pixel
Аудио: MPEG Layer 3, 48 kHz, 2 ch, 128.00 kbps avg-Сэмпл-

MI

Общее
Полное имя : C:\Фильмы\Чужой район-2\Чужой район-2_01.avi
Формат : AVI
Формат/Информация : Audio Video Interleave
Размер файла : 573 Мбайт
Продолжительность : 44 м.
Общий поток : 1783 Кбит/сек
Библиотека кодирования : VirtualDub build 32507/release
Видео
Идентификатор : 0
Формат : MPEG-4 Visual
Профиль формата : Advanced Simple@L5
Параметр BVOP формата : 2
Параметр QPel формата : Нет
Параметр GMC формата : Без точки перехода
Параметр матрицы формата : Default (H.263)
Режим смешивания : Сжатый битовый поток
Идентификатор кодека : XVID
Идентификатор кодека/Подсказка : XviD
Продолжительность : 44 м.
Битрейт : 1645 Кбит/сек
Ширина : 720 пикселей
Высота : 384 пикселя
Соотношение сторон : 1,85:1
Частота кадров : 25,000 кадров/сек
Цветовое пространство : YUV
Субдискретизация насыщенности : 4:2:0
Битовая глубина : 8 бит
Тип развёртки : Прогрессивная
Метод сжатия : С потерями
Бит/(Пиксели*Кадры) : 0.238
Размер потока : 528 Мбайт (92%)
Библиотека кодирования : XviD 64
Аудио
Идентификатор : 1
Формат : MPEG Audio
Версия формата : Version 1
Профиль формата : Layer 3
Режим : Joint stereo
Расширение режима : MS Stereo
Идентификатор кодека : 55
Идентификатор кодека/Подсказка : MP3
Продолжительность : 44 м.
Вид битрейта : Постоянный
Битрейт : 128 Кбит/сек
Каналы : 2 канала
Частота : 48,0 КГц
Метод сжатия : С потерями
Задержка видео : 8 мс.
Размер потока : 41,1 Мбайт (7%)
Выравнивание : Разделение по промежуткам
Продолжительность промежутка : 40 мс. (1,00 видеокадр)
Время предзагрузки промежутка : 500 мс.

Скриншоты

Внимание! Раздача ведётся путём добавления новых серий

Внимание! Раздача ведётся путём добавления новых серий; при каждом добавлении создаётся новый торрент. Чтобы начать докачку новой серии, пользователям необходимо сделать следующее:
(1) остановить скачивание,
(2) удалить старый торрент у себя из клиента (старые серии удалять не надо),
(3) скачать новый торрент и запустить его у себя в клиенте вместо старого, при этом указать клиенту путь в старую папку куда и должно происходить скачивание новых серий.
Ваш клиент при этом должен произвести хеширование (проверку) старой папки (если не производит сам - помогите ему сделать это), и будет докачивать только те серии которых у вас ещё нет. Старые серии при этом не удаляются, а продолжают раздаваться!
Eсли вы уже удалили старые серии, то предотвратить повторную закачку старых серий можно, отжав галочку в соответствующих местах при запуске нового торрента. По возможности, желательно не удалять старые серии как можно дольше чтобы релизёр не столько продолжал раздавать старые серии, а смог сконцентрироваться на новых.

Список серий

1 - "Самогон"
2 - "Кража"
3 - "Пламя"
4 - "Ошибка"
5 - "Миллионер"
6 - "Проверка"
7 - "Жених"
8 - "Долги"
9 - "Защита"
10 - "Справедливость"
11 - "Дружина"
12 - "Ловушка"
13 - "Письмо"
14 -"Царь Воды"
15 - "Кредит"
16 - "Расплата"
17 - "Побег"
18 - "Ранение"
19 - "Клеймо"
20 - "Подстава"
21 - "Граффити"
22 - "Похищение"
23 - "Коллега"
24 - "Мечта"
25 - "Вера"
26 - "До самой смерти"
27 - "Новый Год"
28 - "Камyфляж"
29 - "Отрава"
30 - "Страсть"
31 - "Предатель"
32 - "Звание"

_________________
Показать сообщения:    

Текущее время: Сегодня 13:53

Часовой пояс: GMT



Вы не можете начинать темы
Вы не можете отвечать на сообщения
Вы не можете редактировать свои сообщения
Вы не можете удалять свои сообщения
Вы не можете голосовать в опросах
Вы не можете прикреплять файлы к сообщениям
Вы не можете скачивать файлы